2 сезон

iTunes

WEBRip

1

2 сезон

iTunes

1 сезон

1 сезон

RePack

30

Ultimate

ВАЖНО

ИГРА 18+

pack

RePack

MK11
pack

Легкие деньги

RePack

jed

RePack

fifa19

RePack

RDR2

RePack

NEED FOR SPEED™ PAYBACK

4 сезон

9 сезон

Бесстыжие 9 сезон

Все сериалы

все сериалы на PB.wtf

RePack

FAR CRY 5

Anonymous, доброй ночи, мы не успеваем собрать деньги на оплату серверов за февраль, помогите нам пожалуйста в это трудное время. В качестве благодарности мы отключим Вам всю рекламу на сайте (укажите свой ник в строку Ваше имя)!

×
  
Magnet ссылка

Американские боги / American Gods / Сезон: 3 / Серии 1-7 из 10 (Дэвид Слэйд, Адам Кэйн, Винченцо Натали) [2021, Фэнтези, детектив, WEB-DL 1080p] [DUB] (Нота) pb.wtf

Американские боги через торрент pb.wtf

Раздают: 1 [ 37 KB/s ] Качают: 2 [ 0 KB/s ]
Размер: 25.76 GB | Добавлен: 2 д. 14 ч. назад | Торрент скачан:2 раза
Скачать  

11-01-2021 08:44 Американские боги Скачать торрент  

Американские богиAmerican Gods
Год выпуска: 2021
Страна: США
Жанр: Фэнтези, детектив
Продолжительность: ~00:55:00
Перевод: Дублированный [НОТА]
Субтитры: Русские (Forced, Full), английские (SDH), немецкие, испанские, французкие, итальянские, португальские

Режиссёр: Дэвид Слэйд, Адам Кэйн, Винченцо Натали

В ролях: Рики Уиттл, Иэн МакШейн, Эмили Браунинг, Пабло Шрайбер, Брюс Лэнгли, Джонатан Такер, Джиллиан Андерсон, Клорис Личмен

Описание: Тень — человек с прошлым. Но теперь единственное, чего он хочет — это жить тихой и спокойной жизнью со своей женой в стороне от проблем. Пока он не узнает о ее гибели в результате несчастного случая. По пути на похороны домой, когда сильнейший шторм сотрясает самолет, ему представляется странный человек с соседнего кресла. Он называет себя мистер Среда. И он знает о Тени больше, чем кажется возможным. Он предупреждает Тень, что грядет ещё больший шторм. И ничто с этого момента, включая его самого, не будет таким, как прежде.

rating
Релиз от скриншот  

Качество: WEB-DL 1080p
Формат: MKV
Видео: MPEG-4 AVC, ~ 9046 Кбит/с, 1920x1080, 23.976 fps
Аудио Rus: E-AC3, 48 kHz, 6 ch, 640 kbps
Аудио Eng: E-AC3, 48 kHz, 6 ch, 640 kbps
General
Unique ID : 36180809627032479499532715944558874820 (0x1B382BA3BE8135086462C92BAEEA50C4)
Complete name : American.Gods.S03.1080p.AMZN.WEB-DL.DDP5.1.H.264-EniaHD\American.Gods.S03E01.A.Winters.Tale.1080p.AMZN.WEB-DL.DDP5.1.H.264-EniaHD.mkv
Format : Matroska
Format version : Version 4
File size : 4.03 GiB
Duration : 55 min 47 s
Overall bit rate : 10.3 Mb/s
Movie name : American Gods S03E01 - EniaHD
Encoded date : UTC 2021-01-11 08:31:05
Writing application : mkvmerge v52.0.0 ('Secret For The Mad') 64-bit
Writing library : libebml v1.4.1 + libmatroska v1.6.2

Video
ID : 1
Format : AVC
Format/Info : Advanced Video Codec
Format profile : High@L4
Format settings : CABAC / 4 Ref Frames
Format settings, CABAC : Yes
Format settings, Reference fra : 4 frames
Codec ID : V_MPEG4/ISO/AVC
Duration : 55 min 47 s
Bit rate mode : Constant
Bit rate : 9 046 kb/s
Nominal bit rate : 10 000 kb/s
Width : 1 920 pixels
Height : 1 080 pixels
Display aspect ratio : 16:9
Frame rate mode : Constant
Frame rate : 23.976 (24000/1001) FPS
Color space : YUV
Chroma subsampling : 4:2:0
Bit depth : 8 bits
Scan type : Progressive
Bits/(Pixel*Frame) : 0.182
Stream size : 3.53 GiB (88%)
Default : Yes
Forced : No
Color range : Limited
Color primaries : BT.709
Transfer characteristics : BT.709
Matrix coefficients : BT.709

Audio #1
ID : 2
Format : E-AC-3
Format/Info : Enhanced AC-3
Commercial name : Dolby Digital Plus
Codec ID : A_EAC3
Duration : 55 min 47 s
Bit rate mode : Constant
Bit rate : 640 kb/s
Channel(s) : 6 channels
Channel layout : L R C LFE Ls Rs
Sampling rate : 48.0 kHz
Frame rate : 31.250 FPS (1536 SPF)
Compression mode : Lossy
Stream size : 255 MiB (6%)
Language : Russian
Service kind : Complete Main
Default : Yes
Forced : No

Audio #2
ID : 3
Format : E-AC-3
Format/Info : Enhanced AC-3
Commercial name : Dolby Digital Plus
Codec ID : A_EAC3
Duration : 55 min 47 s
Bit rate mode : Constant
Bit rate : 640 kb/s
Channel(s) : 6 channels
Channel layout : L R C LFE Ls Rs
Sampling rate : 48.0 kHz
Frame rate : 31.250 FPS (1536 SPF)
Compression mode : Lossy
Stream size : 255 MiB (6%)
Language : English
Service kind : Complete Main
Default : No
Forced : No

Text #1
ID : 4
Format : UTF-8
Codec ID : S_TEXT/UTF8
Codec ID/Info : UTF-8 Plain Text
Duration : 48 min 28 s
Bit rate : 1 b/s
Count of elements : 20
Stream size : 701 Bytes (0%)
Title : Forced
Language : Russian
Default : Yes
Forced : No

Text #2
ID : 5
Format : UTF-8
Codec ID : S_TEXT/UTF8
Codec ID/Info : UTF-8 Plain Text
Duration : 53 min 14 s
Bit rate : 82 b/s
Count of elements : 570
Stream size : 32.0 KiB (0%)
Language : Russian
Default : No
Forced : No

Text #3
ID : 6
Format : UTF-8
Codec ID : S_TEXT/UTF8
Codec ID/Info : UTF-8 Plain Text
Duration : 55 min 22 s
Bit rate : 67 b/s
Count of elements : 954
Stream size : 27.5 KiB (0%)
Title : SDH
Language : English
Default : No
Forced : No

Text #4
ID : 7
Format : UTF-8
Codec ID : S_TEXT/UTF8
Codec ID/Info : UTF-8 Plain Text
Duration : 53 min 13 s
Bit rate : 61 b/s
Count of elements : 694
Stream size : 23.9 KiB (0%)
Language : German
Default : No
Forced : No

Text #5
ID : 8
Format : UTF-8
Codec ID : S_TEXT/UTF8
Codec ID/Info : UTF-8 Plain Text
Duration : 53 min 14 s
Bit rate : 52 b/s
Count of elements : 629
Stream size : 20.5 KiB (0%)
Title : Latinoamérica
Language : Spanish
Default : No
Forced : No

Text #6
ID : 9
Format : UTF-8
Codec ID : S_TEXT/UTF8
Codec ID/Info : UTF-8 Plain Text
Duration : 52 min 31 s
Bit rate : 50 b/s
Count of elements : 642
Stream size : 19.6 KiB (0%)
Language : French
Default : No
Forced : No

Text #7
ID : 10
Format : UTF-8
Codec ID : S_TEXT/UTF8
Codec ID/Info : UTF-8 Plain Text
Duration : 52 min 31 s
Bit rate : 57 b/s
Count of elements : 566
Stream size : 22.0 KiB (0%)
Language : Italian
Default : No
Forced : No

Text #8
ID : 11
Format : UTF-8
Codec ID : S_TEXT/UTF8
Codec ID/Info : UTF-8 Plain Text
Duration : 53 min 14 s
Bit rate : 55 b/s
Count of elements : 631
Stream size : 21.7 KiB (0%)
Title : Brasil
Language : Portuguese
Default : No
Forced : No

Menu
00:00:00.000 : :Amazon Original
00:00:06.000 : :Previously On
00:03:12.000 : :Death metal tributes
00:05:59.000 : :Opening Credits
00:07:31.000 : :Factory work
00:09:48.000 : :Laura's desperate
00:11:38.000 : :Running out of luck
00:14:59.000 : :A disturbing encounter
00:18:32.000 : :Control the narrative
00:20:25.000 : :Twenty questions
00:24:45.000 : :Having technical difficulties
00:29:20.000 : :Road blockade
00:33:42.000 : :Coming to collect
00:38:08.000 : :Finding Whiskey Jack
00:41:49.000 : :Shadow wants to make his own decisions
00:45:12.000 : :Bus depot
00:46:37.000 : :Arriving in Lakeside
00:48:35.000 : :The cold North
00:50:53.000 : :A ride home
00:52:50.000 : :A broken entrance
00:54:35.000 : :End Credits

скриншот  скриншот  скриншот  
Внимание! Раздача ведётся путём добавления новых серий; при каждом добавлении создаётся новый торрент. Чтобы начать докачку новой серии, пользователям необходимо сделать следующее:
(1) остановить скачивание,
(2) удалить старый торрент у себя из клиента (старые серии удалять не надо),
(3) скачать новый торрент и запустить его у себя в клиенте вместо старого, при этом указать клиенту путь в старую папку куда и должно происходить скачивание новых серий.
Ваш клиент при этом должен произвести хеширование (проверку) старой папки (если не производит сам - помогите ему сделать это), и будет докачивать только те серии которых у вас ещё нет. Старые серии при этом не удаляются, а продолжают раздаваться!
Eсли вы уже удалили старые серии, то предотвратить повторную закачку старых серий можно, отжав галочку в соответствующих местах при запуске нового торрента. По возможности, желательно не удалять старые серии как можно дольше чтобы релизёр не столько продолжал раздавать старые серии, а смог сконцентрироваться на новых.
pb.wtf



Скачать Американские боги через торрент http://i89.fastpic.ru/big/2017/0501/c7/b98a997b677dc35cfe43383b046883c7.jpg Скачать фильм Американские боги через торрент бесплантно в хорошем качестве Описание: Тень — человек с прошлым. Но теперь единственное, чего он хочет — это жить тихой и спокойной жизнью со своей женой в стороне от ... 9.4 10 7
Торрент: Зарегистрирован [2021-03-01 13:18] · скачан: 2 раз
Статус: √ проверено
Размер: 25.76 GB
Как cкачать? Как скачать Американские боги через торрент | UTorrent

% Раздел Тема Автор DL S | L
Зарубежные сериалы [ 13.28 GB ] Американские боги / American Gods / Сезон: 3 / Серии: 1-7 из 10 [2021 WEB-DL 720p] MVO [AlexFilm] bober100 Скачать
2 | 0
* Зарубежные сериалы [ 5.64 GB ] Американские боги / American Gods / Сезон: 3 / Серии 1-7 из 10 [2021 WEB-DLRip-AVC] MVO [LostFilm] GEKADOL Скачать
5 | 3
Зарубежные сериалы [ 25.22 GB ] Американские боги / American Gods / Сезон: 3 / Серии: 1-7 из 10 [2021 WEB-DL 1080p] MVO [AlexFilm] bober100 Скачать
2 | 0
Зарубежные сериалы [ 6.92 GB ] Американские боги / American Gods / Сезон: 3 / Серии: 1-7 из 10 [2021 WEB-DLRip] DUB [Нота] bober100 Скачать
1 | 1

28-11-2019 20:33  

Отключить всю рекламу на сайте

    Дорогой пользователь! Огромная просьба, поблагодарите релизера, оцените раздачу и оставьте свои комментарий, если Вы скачали Американские боги через торрент бесплатно! Внесите свою лепту в развитие PiratBit!
    Комментировать посты могут только пользователи прошедшие не сложную регистрацию
    Показать сообщения:    

    Американские боги через торрент
    Скачать бесплатно Американские боги
    Американские боги скачать торрент
    Американские боги смотреть онлайн
    Cкачать фильм Американские боги бесплатно
    Американские боги скачать торрент в хорошем качестве
    Американские боги смотреть онлайн бесплатно в хорошем качестве


    Вы не можете начинать темы
    Вы не можете отвечать на сообщения
    Вы не можете редактировать свои сообщения
    Вы не можете удалять свои сообщения
    Вы не можете голосовать в опросах
    Вы не можете прикреплять файлы к сообщениям
    Вы можете скачивать файлы