2 сезон

iTunes

MVO

1

2 сезон

iTunes

iTunes

1 сезон

RePack

30

Ultimate

ВАЖНО

ИГРА 18+

pack

RePack

MK11
pack

Легкие деньги

RePack

jed

RePack

fifa19

RePack

RDR2

RePack

NEED FOR SPEED™ PAYBACK

4 сезон

9 сезон

Бесстыжие 9 сезон

Все сериалы

все сериалы на PB.wtf

RePack

FAR CRY 5

Anonymous, доброй ночи, мы не успеваем собрать деньги на оплату серверов за декабрь и январь, помогите нам пожалуйста в это трудное время. В качестве благодарности мы отключим Вам всю рекламу на сайте (укажите свой ник в строку Ваше имя)!

×
  
Magnet ссылка

Взвод / Platoon (Оливер Стоун) [1986, военный, история, драма, BDRip-HEVC 1080p] DUB + 3xMVO + 2xDVO + 5xAVO + VO | US 25th Anniversary Edition pb.wtf

Взвод через торрент pb.wtf

Раздают: 3 [ 0 KB/s ]
Размер: 12.82 GB | Добавлен: 7 д. назад | Торрент скачан:68 раз
Скачать  

11-01-2021 17:26 Взвод Скачать торрент  

Название: Взвод
Оригинальное название: Platoon
Год производства: 1986
Жанр: военный, история, драма
Режиссер: Оливер Стоун
В ролях: Чарли Шин, Том Беренджер, Уиллем Дефо, Форест Уитакер, Франческо Куинн, Кит Дэвид, Кевин Диллон, Джон К. МакГинли, Корки Форд, Кори Гловер

О фильме: В сентябре 1967 года куда-то в приграничный район между Вьетнамом и Камбоджей прибыл рядовой 25-го пехотного полка Крис Тэйлор. Прибыл, чтобы своими глазами увидеть, как выглядит подлинный ад. Не потусторонний, вымышленный, сочинённый писателями или художниками, а натуральный, вполне земной ад, на территории которого схлестнулись друг с другом сержант Боб Барнс и сержант Илайес Гродин. Они тоже думали, что будут воевать с партизанами-вьетконговцами, но оказалось, что иногда приходится драться со своими.



Страна: США, Великобритания
Студия: Cinema 86, Hemdale Films, Orion Pictures
Продолжительность: 01:59:49
Перевод: дублированный, профессиональный многоголосый, профессиональный двухголосый, авторский одноголосый, любительский одноголосый

Качество: BDRip-HEVC 1080p
Кодек: HEVC (x265)
Видео: 1920x1040 (1,85:1), 11,0 Мбит/сек, HEVC (Main10@L.4.1@High) 10 бит
Звук:
Аудио1: AC3, 2 ch, 192 Kbps - Русский, Дублированный (Варус-видео)
Аудио2: AC3, 2 ch, 128 Kbps - Русский, Многоголосый (Первый канал)
Аудио3: AC3, 2 ch, 192 Kbps - Русский, Многоголосый (Пятый канал)
Аудио4: AC3, 6 ch, 448 Kbps - Русский, Двухголосый (Blu-ray CEE)
Аудио5: AC3, 2 ch, 192 Kbps - Русский, Двухголосый (Лазер-видео)
Аудио6: AC3, 6 ch, 448 Kbps - Русский, Авторский (Дмитрий Пучков)
Аудио7: AC3, 6 ch, 448 Kbps - Русский, Авторский (Юрий Живов)
Аудио8: AC3, 6 ch, 448 Kbps - Русский, Авторский (Андрей Гаврилов)
Аудио9: AC3, 6 ch, 448 Kbps - Русский, Авторский (Василий Горчаков)
Аудио10: AC3, 2 ch, 192 Kbps - Русский, Авторский (Юрий Сербин)
Аудио11: AC3, 2 ch, 192 Kbps - Русский, Одноголосый (Игорь Еремеев)
Аудио12: AC3, 2 ch, 192 Kbps - Украинский, Многоголосый (Канал Кино)
Аудио13: AC3, 6 ch, 448 Kbps - English, Original
Субтитры: Русские полные (SRT), English full (SRT)
Навигация по главам: Есть
x265 [info]: frame I: 731, Avg QP:17.54 kb/s: 23868.97
x265 [info]: frame P: 38386, Avg QP:18.96 kb/s: 19878.52
x265 [info]: frame B: 133263, Avg QP:20.85 kb/s: 8814.38
x265 [info]: Weighted P-Frames: Y:16.0% UV:13.4%
x265 [info]: Weighted B-Frames: Y:13.3% UV:10.3%
x265 [info]: consecutive B-frames: 2.4% 4.1% 5.8% 54.0% 7.9% 24.2% 0.6% 0.6% 0.1% 0.1%
x265 [info]: encoded 172380 frames in 238374.13s (0.72 fps), 11342.01 kb/s, Avg QP:20.42
Общее
Уникальный идентификатор : 66809976546197079134733707635454740191 (0x324322293768B6515A32DFE00AFD86DF)
Полное имя : \\.\Взвод.Platoon.1986.US.25th.Anniversary.Edition.BDRip-HEVC.1080p.mkv
Формат : Matroska
Версия формата : Version 4
Размер файла : 12,8 Гбайт
Продолжительность : 1 ч. 59 м.
Общий поток : 15,3 Мбит/сек
Название фильма : Взвод.Platoon.1986.US.25th.Anniversary.Edition.BDRip-HEVC.1080p
Дата кодирования : UTC 2021-01-10 11:56:57
Программа кодирования : mkvmerge v51.0.0 ('I Wish') 64-bit
Библиотека кодирования : libebml v1.4.0 + libmatroska v1.6.2

Видео
Идентификатор : 1
Формат : HEVC
Формат/Информация : High Efficiency Video Coding
Профиль формата : Main 10@L4.1@High
Идентификатор кодека : V_MPEGH/ISO/HEVC
Продолжительность : 1 ч. 59 м.
Битрейт : 11,0 Мбит/сек
Ширина : 1 920 пикселей
Высота : 1 040 пикселей
Соотношение сторон : 1,85:1
Режим частоты кадров : Постоянный
Частота кадров : 23,976 (24000/1001) кадра/сек
Цветовое пространство : YUV
Субдискретизация насыщенности : 4:2:0
Битовая глубина : 10 бит
Бит/(Пиксели*Кадры) : 0.231
Размер потока : 9,24 Гбайт (72%)
Заголовок : Platoon / Rip by OldGamer
Библиотека кодирования : x265 3.4+4-g3ae3d7116:[Windows][GCC 10.2.0][64 bit] 10bit
Настройки программы : cpuid=1111039 / frame-threads=3 / numa-pools=8 / wpp / no-pmode / no-pme / no-psnr / no-ssim / log-level=2 / input-csp=1 / input-res=1920x1040 / interlace=0 / total-frames=172380 / level-idc=41 / high-tier=1 / uhd-bd=0 / ref=5 / no-allow-non-conformance / no-repeat-headers / annexb / no-aud / no-hrd / info / hash=0 / no-temporal-layers / open-gop / min-keyint=23 / keyint=240 / gop-lookahead=0 / bframes=9 / b-adapt=2 / b-pyramid / bframe-bias=0 / rc-lookahead=40 / lookahead-slices=0 / scenecut=40 / hist-scenecut=0 / radl=0 / no-splice / no-intra-refresh / ctu=64 / min-cu-size=8 / rect / amp / max-tu-size=32 / tu-inter-depth=4 / tu-intra-depth=4 / limit-tu=1 / rdoq-level=2 / dynamic-rd=0.00 / no-ssim-rd / signhide / no-tskip / nr-intra=0 / nr-inter=0 / no-constrained-intra / no-strong-intra-smoothing / max-merge=5 / limit-refs=3 / no-limit-modes / me=3 / subme=7 / merange=57 / temporal-mvp / no-frame-dup / no-hme / weightp / weightb / no-analyze-src-pics / deblock=-3:-3 / no-sao / no-sao-non-deblock / rd=6 / selective-sao=0 / no-early-skip / rskip / no-fast-intra / no-tskip-fast / no-cu-lossless / b-intra / no-splitrd-skip / rdpenalty=0 / psy-rd=2.00 / psy-rdoq=1.00 / no-rd-refine / no-lossless / cbqpoffs=0 / crqpoffs=0 / rc=crf / crf=19.8 / qcomp=0.70 / qpstep=4 / stats-write=0 / stats-read=0 / vbv-maxrate=50000 / vbv-bufsize=50000 / vbv-init=0.9 / crf-max=0.0 / crf-min=0.0 / ipratio=1.40 / pbratio=1.30 / aq-mode=1 / aq-strength=1.00 / no-cutree / zone-count=1 / zones: / start-frame=168069 / end-frame=172364 / qp=36 / no-strict-cbr / qg-size=32 / no-rc-grain / qpmax=69 / qpmin=0 / no-const-vbv / sar=1 / overscan=0 / videoformat=5 / range=0 / colorprim=2 / transfer=2 / colormatrix=2 / chromaloc=0 / display-window=0 / cll=0,0 / min-luma=0 / max-luma=1023 / log2-max-poc-lsb=8 / vui-timing-info / vui-hrd-info / slices=1 / no-opt-qp-pps / no-opt-ref-list-length-pps / no-multi-pass-opt-rps / scenecut-bias=0.00 / hist-threshold=0.01 / no-opt-cu-delta-qp / no-aq-motion / no-hdr10 / no-hdr10-opt / no-dhdr10-opt / no-idr-recovery-sei / analysis-reuse-level=0 / analysis-save-reuse-level=0 / analysis-load-reuse-level=0 / scale-factor=0 / refine-intra=0 / refine-inter=0 / refine-mv=1 / refine-ctu-distortion=0 / no-limit-sao / ctu-info=0 / no-lowpass-dct / refine-analysis-type=0 / copy-pic=1 / max-ausize-factor=1.0 / no-dynamic-refine / no-single-sei / no-hevc-aq / no-svt / no-field / qp-adaptation-range=1.00 / no-scenecut-aware-qpconformance-window-offsets / right=0 / bottom=0 / decoder-max-rate=0
Язык : English
Default : Да
Forced : Нет

Аудио #1
Идентификатор : 2
Формат : AC-3
Формат/Информация : Audio Coding 3
Коммерческое название : Dolby Digital
Идентификатор кодека : A_AC3
Продолжительность : 1 ч. 59 м.
Вид битрейта : Постоянный
Битрейт : 192 Кбит/сек
Каналы : 2 канала
Channel layout : L R
Частота : 48,0 КГц
Частота кадров : 31,250 кадров/сек (1536 SPF)
Метод сжатия : С потерями
Размер потока : 165 Мбайт (1%)
Заголовок : DUB (Варус-видео)
Язык : Russian
Service kind : Complete Main
Default : Да
Forced : Нет

Аудио #2
Идентификатор : 3
Формат : AC-3
Формат/Информация : Audio Coding 3
Коммерческое название : Dolby Digital
Идентификатор кодека : A_AC3
Продолжительность : 1 ч. 59 м.
Вид битрейта : Постоянный
Битрейт : 128 Кбит/сек
Каналы : 2 канала
Channel layout : L R
Частота : 48,0 КГц
Частота кадров : 31,250 кадров/сек (1536 SPF)
Метод сжатия : С потерями
Размер потока : 110 Мбайт (1%)
Заголовок : MVO (Первый канал)
Язык : Russian
Service kind : Complete Main
Default : Нет
Forced : Нет

Аудио #3
Идентификатор : 4
Формат : AC-3
Формат/Информация : Audio Coding 3
Коммерческое название : Dolby Digital
Идентификатор кодека : A_AC3
Продолжительность : 1 ч. 59 м.
Вид битрейта : Постоянный
Битрейт : 192 Кбит/сек
Каналы : 2 канала
Channel layout : L R
Частота : 48,0 КГц
Частота кадров : 31,250 кадров/сек (1536 SPF)
Метод сжатия : С потерями
Размер потока : 165 Мбайт (1%)
Заголовок : MVO (Пятый канал)
Язык : Russian
Service kind : Complete Main
Default : Нет
Forced : Нет

Аудио #4
Идентификатор : 5
Формат : AC-3
Формат/Информация : Audio Coding 3
Коммерческое название : Dolby Digital
Идентификатор кодека : A_AC3
Продолжительность : 1 ч. 59 м.
Вид битрейта : Постоянный
Битрейт : 448 Кбит/сек
Каналы : 6 каналов
Channel layout : L R C LFE Ls Rs
Частота : 48,0 КГц
Частота кадров : 31,250 кадров/сек (1536 SPF)
Метод сжатия : С потерями
Размер потока : 384 Мбайт (3%)
Заголовок : DVO (Blu-ray CEE)
Язык : Russian
Service kind : Complete Main
Default : Нет
Forced : Нет

Аудио #5
Идентификатор : 6
Формат : AC-3
Формат/Информация : Audio Coding 3
Коммерческое название : Dolby Digital
Идентификатор кодека : A_AC3
Продолжительность : 1 ч. 59 м.
Вид битрейта : Постоянный
Битрейт : 192 Кбит/сек
Каналы : 2 канала
Channel layout : L R
Частота : 48,0 КГц
Частота кадров : 31,250 кадров/сек (1536 SPF)
Метод сжатия : С потерями
Размер потока : 165 Мбайт (1%)
Заголовок : DVO (Лазер-видео)
Язык : Russian
Service kind : Complete Main
Default : Нет
Forced : Нет

Аудио #6
Идентификатор : 7
Формат : AC-3
Формат/Информация : Audio Coding 3
Коммерческое название : Dolby Digital
Идентификатор кодека : A_AC3
Продолжительность : 1 ч. 59 м.
Вид битрейта : Постоянный
Битрейт : 448 Кбит/сек
Каналы : 6 каналов
Channel layout : L R C LFE Ls Rs
Частота : 48,0 КГц
Частота кадров : 31,250 кадров/сек (1536 SPF)
Метод сжатия : С потерями
Размер потока : 384 Мбайт (3%)
Заголовок : AVO (Дмитрий Пучков)
Язык : Russian
Service kind : Complete Main
Default : Нет
Forced : Нет

Аудио #7
Идентификатор : 8
Формат : AC-3
Формат/Информация : Audio Coding 3
Коммерческое название : Dolby Digital
Идентификатор кодека : A_AC3
Продолжительность : 1 ч. 59 м.
Вид битрейта : Постоянный
Битрейт : 448 Кбит/сек
Каналы : 6 каналов
Channel layout : L R C LFE Ls Rs
Частота : 48,0 КГц
Частота кадров : 31,250 кадров/сек (1536 SPF)
Метод сжатия : С потерями
Размер потока : 384 Мбайт (3%)
Заголовок : AVO (Юрий Живов)
Язык : Russian
Service kind : Complete Main
Default : Нет
Forced : Нет

Аудио #8
Идентификатор : 9
Формат : AC-3
Формат/Информация : Audio Coding 3
Коммерческое название : Dolby Digital
Идентификатор кодека : A_AC3
Продолжительность : 1 ч. 59 м.
Вид битрейта : Постоянный
Битрейт : 448 Кбит/сек
Каналы : 6 каналов
Channel layout : L R C LFE Ls Rs
Частота : 48,0 КГц
Частота кадров : 31,250 кадров/сек (1536 SPF)
Метод сжатия : С потерями
Размер потока : 384 Мбайт (3%)
Заголовок : AVO (Андрей Гаврилов)
Язык : Russian
Service kind : Complete Main
Default : Нет
Forced : Нет

Аудио #9
Идентификатор : 10
Формат : AC-3
Формат/Информация : Audio Coding 3
Коммерческое название : Dolby Digital
Идентификатор кодека : A_AC3
Продолжительность : 1 ч. 59 м.
Вид битрейта : Постоянный
Битрейт : 448 Кбит/сек
Каналы : 6 каналов
Channel layout : L R C LFE Ls Rs
Частота : 48,0 КГц
Частота кадров : 31,250 кадров/сек (1536 SPF)
Метод сжатия : С потерями
Размер потока : 384 Мбайт (3%)
Заголовок : AVO (Василий Горчаков)
Язык : Russian
Service kind : Complete Main
Default : Нет
Forced : Нет

Аудио #10
Идентификатор : 11
Формат : AC-3
Формат/Информация : Audio Coding 3
Коммерческое название : Dolby Digital
Идентификатор кодека : A_AC3
Продолжительность : 1 ч. 59 м.
Вид битрейта : Постоянный
Битрейт : 192 Кбит/сек
Каналы : 2 канала
Channel layout : L R
Частота : 48,0 КГц
Частота кадров : 31,250 кадров/сек (1536 SPF)
Метод сжатия : С потерями
Размер потока : 165 Мбайт (1%)
Заголовок : AVO (Юрий Сербин)
Язык : Russian
Service kind : Complete Main
Default : Нет
Forced : Нет

Аудио #11
Идентификатор : 12
Формат : AC-3
Формат/Информация : Audio Coding 3
Коммерческое название : Dolby Digital
Идентификатор кодека : A_AC3
Продолжительность : 1 ч. 59 м.
Вид битрейта : Постоянный
Битрейт : 192 Кбит/сек
Каналы : 2 канала
Channel layout : L R
Частота : 48,0 КГц
Частота кадров : 31,250 кадров/сек (1536 SPF)
Метод сжатия : С потерями
Размер потока : 165 Мбайт (1%)
Заголовок : VO (Игорь Еремеев)
Язык : Russian
Service kind : Complete Main
Default : Нет
Forced : Нет

Аудио #12
Идентификатор : 13
Формат : AC-3
Формат/Информация : Audio Coding 3
Коммерческое название : Dolby Digital
Идентификатор кодека : A_AC3
Продолжительность : 1 ч. 59 м.
Вид битрейта : Постоянный
Битрейт : 192 Кбит/сек
Каналы : 2 канала
Channel layout : L R
Частота : 48,0 КГц
Частота кадров : 31,250 кадров/сек (1536 SPF)
Метод сжатия : С потерями
Размер потока : 165 Мбайт (1%)
Заголовок : MVO (Канал Кино)
Язык : Ukrainian
Service kind : Complete Main
Default : Нет
Forced : Нет

Аудио #13
Идентификатор : 14
Формат : AC-3
Формат/Информация : Audio Coding 3
Коммерческое название : Dolby Digital
Идентификатор кодека : A_AC3
Продолжительность : 1 ч. 59 м.
Вид битрейта : Постоянный
Битрейт : 448 Кбит/сек
Каналы : 6 каналов
Channel layout : L R C LFE Ls Rs
Частота : 48,0 КГц
Частота кадров : 31,250 кадров/сек (1536 SPF)
Метод сжатия : С потерями
Размер потока : 384 Мбайт (3%)
Язык : English
Service kind : Complete Main
Default : Нет
Forced : Нет

Текст #1
Идентификатор : 15
Формат : UTF-8
Идентификатор кодека : S_TEXT/UTF8
Идентификатор кодека/Информация : UTF-8 Plain Text
Заголовок : RuFilms
Язык : Russian
Default : Нет
Forced : Нет

Текст #2
Идентификатор : 16
Формат : UTF-8
Идентификатор кодека : S_TEXT/UTF8
Идентификатор кодека/Информация : UTF-8 Plain Text
Заголовок : SuperBit
Язык : Russian
Default : Нет
Forced : Нет

Текст #3
Идентификатор : 17
Формат : UTF-8
Идентификатор кодека : S_TEXT/UTF8
Идентификатор кодека/Информация : UTF-8 Plain Text
Заголовок : Goblin censored
Язык : Russian
Default : Нет
Forced : Нет

Текст #4
Идентификатор : 18
Формат : UTF-8
Идентификатор кодека : S_TEXT/UTF8
Идентификатор кодека/Информация : UTF-8 Plain Text
Заголовок : Goblin uncensored
Язык : Russian
Default : Нет
Forced : Нет

Текст #5
Идентификатор : 19
Формат : UTF-8
Идентификатор кодека : S_TEXT/UTF8
Идентификатор кодека/Информация : UTF-8 Plain Text
Язык : English
Default : Нет
Forced : Нет

Меню
00:00:00.000 : en:Logo / Main Title
00:02:57.135 : en:Unknown Territory
00:05:26.534 : en:Ants
00:08:14.535 : en:First Week in Hell
00:11:28.479 : en:Platoon Politics
00:13:13.667 : en:New Guys on Ambush
00:18:43.122 : en:Dead of Night
00:22:44.863 : en:A Lesson in Dying
00:26:26.001 : en:A Crusader
00:29:59.422 : en:The Feel-Good Cave
00:32:18.895 : en:Talkin' Trash
00:36:30.730 : en:Bunker Complex
00:43:07.459 : en:"Where's Manny?"
00:45:09.415 : en:Doing the Village
00:50:32.904 : en:Look the Other Way
00:55:49.554 : en:"Fire in the Hole"
00:58:56.157 : en:Enforced Cease-Fire
01:01:50.581 : en:No Faith
01:03:04.864 : en:A Rainy Blur
01:04:45.381 : en:A Waste of Men
01:11:02.549 : en:Elias Is Out There
01:15:26.772 : en:"He's Dead?"
01:16:48.437 : en:Your Tired Your Poor
01:21:07.279 : en:Experts on Killing
01:26:42.322 : en:Live Bait
01:29:21.022 : en:The Rest Is Gravy
01:32:25.498 : en:"Gotta Die Some Time"
01:37:21.794 : en:In the Foxhole
01:43:40.130 : en:Overrun
01:46:49.444 : en:One Last Shot
01:50:16.651 : en:Survivors
01:55:35.011 : en:End Credits


Релиз от: OldGamer pb.wtf



Скачать Взвод через торрент https://b.radikal.ru/b43/2101/14/c4e4223d8341.jpg Скачать фильм Взвод через торрент бесплантно в хорошем качестве О фильме: В сентябре 1967 года куда-то в приграничный район между Вьетнамом и Камбоджей прибыл рядовой 25-го пехотного полка Крис Тэйлор. ... 8.6 10 7
Торрент: Зарегистрирован [2021-01-11 17:26] · скачан: 68 раз
Статус: √ проверено
Размер: 12.82 GB
Как cкачать? Как скачать Взвод через торрент | UTorrent

28-11-2019 20:33  

Отключить всю рекламу на сайте

11-01-2021 18:43 Взвод Скачать торрент  

Крутейший фильмак от Стоуна,который стал знаменит на весь мир в своё время! Чарли Шин Форест Уиттакер и Уиллем Дэфо,тут просто топчик! однозначно к просмотру,один из немногих фильмов про Вьетнам,где более менее показывают правду!pb.wtf



11-01-2021 19:47 Взвод Скачать торрент  

RogerJunior писал(а):

Крутейший фильмак от Стоуна,который стал знаменит на весь мир в своё время! Чарли Шин Форест Уиттакер и Уиллем Дэфо,тут просто топчик! однозначно к просмотру,один из немногих фильмов про Вьетнам,где более менее показывают правду!

Че, из наших? Во Вьетнаме воевал?

Правда....=)))pb.wtf



12-01-2021 14:10 Взвод Скачать торрент  

RogerJunior писал(а):

Крутейший фильмак от Стоуна,который стал знаменит на весь мир в своё время! Чарли Шин Форест Уиттакер и Уиллем Дэфо,тут просто топчик! однозначно к просмотру,один из немногих фильмов про Вьетнам,где более менее показывают правду!

По телеку тоже более-менее правда.pb.wtf



14-01-2021 10:00 Взвод Скачать торрент  

RogerJunior писал(а):

Крутейший фильмак от Стоуна,который стал знаменит на весь мир в своё время! Чарли Шин Форест Уиттакер и Уиллем Дэфо,тут просто топчик! однозначно к просмотру,один из немногих фильмов про Вьетнам,где более менее показывают правду!

перевод только дурацкий вроде...pb.wtf



    Дорогой пользователь! Огромная просьба, поблагодарите релизера, оцените раздачу и оставьте свои комментарий, если Вы скачали Взвод через торрент бесплатно! Внесите свою лепту в развитие PiratBit!
    Комментировать посты могут только пользователи прошедшие не сложную регистрацию
    Показать сообщения:    

    Взвод через торрент
    Скачать бесплатно Взвод
    Взвод скачать торрент
    Взвод смотреть онлайн
    Cкачать фильм Взвод бесплатно
    Взвод скачать торрент в хорошем качестве
    Взвод смотреть онлайн бесплатно в хорошем качестве


    Вы не можете начинать темы
    Вы не можете отвечать на сообщения
    Вы не можете редактировать свои сообщения
    Вы не можете удалять свои сообщения
    Вы не можете голосовать в опросах
    Вы не можете прикреплять файлы к сообщениям
    Вы можете скачивать файлы