2 сезон

iTunes

MVO

1

2 сезон

iTunes

iTunes

1 сезон

RePack

30

Ultimate

ВАЖНО

ИГРА 18+

pack

RePack

MK11
pack

Легкие деньги

RePack

jed

RePack

fifa19

RePack

RDR2

RePack

NEED FOR SPEED™ PAYBACK

4 сезон

9 сезон

Бесстыжие 9 сезон

Все сериалы

все сериалы на PB.wtf

RePack

FAR CRY 5

Anonymous, доброе утро, мы не успеваем собрать деньги на оплату серверов за декабрь и январь, помогите нам пожалуйста в это трудное время. В качестве благодарности мы отключим Вам всю рекламу на сайте (укажите свой ник в строку Ваше имя)!

×
  
Magnet ссылка

Миша портит всё / Сезон: 2 / Серии: 1-5 из 17 (Всеволод Бродский, Александр Бойков) [2021, Комедия, WEB-DL 720p] pb.wtf

Миша портит всё через торрент pb.wtf

Раздают: 2 [ 0 KB/s ]
Размер: 1.8 GB | Добавлен: 6 д. назад | Торрент скачан:16 раз
Скачать  

11-01-2021 17:36 Миша портит всё Скачать торрент  

Миша портит всё
Год выпуска: 2021
Страна: Россия
Студия: СТС, кинокомпания МИМ
Жанр: Комедия
Продолжительность: ~ 00:23:00
Перевод: не требуется
Субтитры: отсутствуют

Режиссер: Всеволод Бродский, Александр Бойков

В ролях: Михаил Галустян, Елена Николаева (II), Роман Богданов, Александра Абрамейцева, Артемий Падалка, Александр Хохлов (II), Ирина Аугшкап, Александр Никольский, Николай Валуев, Эвелина Блёданс, Александр Шаганов

Описание: Горшковы – самая обычная семья. Они просто хотели отпраздновать в тесном кругу день рождения своего сына. Скромный стол, свечи, сестра мальчика, которая снимает все происходящее на телефон. Все портит Михаил Галустян, который внезапно вылезает из праздничного торта. Комик объявляет семейству, что они, будучи среднестатистической ячейкой общества, выбраны для съемок нового шоу. Никакого согласия у Горшковых никто не спрашивает. Миша преследует супругов и их детей везде, попутно объясняя где и как обманывают рядовых граждан. В каждой серии актер спасает членов семьи от якобы сложившихся традиций, ошибочных суждений и супер акций с мега скидками.



Качество: WEB-DL 720p
Формат: MKV

Видео: MPEG-4 AVC, ~ 3000 Кбит/с, 1280x720, 25 кадр/с
Аудио: 48.0 kHz, AC3 Dolby Digital, 2/0 (L,R) ch, ~ 192 kbps
скриншот  скриншот  скриншот  скриншот  скриншот  

General
Unique ID : 187437877557391220681389326128272215770 (0x8D0338DC33BA44C693E12BB592F58EDA)
Complete name : C:\00\Миша портит всё.s02.2020.WEB-DL 720p.Files-x\01. Миша портит всё.s02.2020.WEB-DL 720p.Files-x.mkv
Format : Matroska
File size : 366 MiB
Duration : 23mn 26s
Overall bit rate : 2 182 Kbps
Encoded date : UTC 2021-01-11 17:02:19
Writing application : mkvmerge v7.8.0 ('River Man') 32bit built on Apr 3 2015 12:11:22
Writing library : libebml v1.3.1 + libmatroska v1.4.2

Video
ID : 1
Format : AVC
Format/Info : Advanced Video Codec
Format profile : High@L4.1
Format settings, CABAC : Yes
Format settings, ReFrames : 5 frames
Format settings, GOP : M=4, N=50
Codec ID : V_MPEG4/ISO/AVC
Duration : 23mn 26s
Bit rate : 1 946 Kbps
Width : 1 280 pixels
Height : 720 pixels
Display aspect ratio : 16:9
Frame rate : 25.000 fps
Standard : PAL
Color space : YUV
Chroma subsampling : 4:2:0
Bit depth : 8 bits
Scan type : Progressive
Bits/(Pixel*Frame) : 0.084
Stream size : 326 MiB (89%)
Color primaries : BT.709-5, BT.1361, IEC 61966-2-4, SMPTE RP177
Transfer characteristics : BT.709-5, BT.1361
Matrix coefficients : BT.709-5, BT.1361, IEC 61966-2-4 709, SMPTE RP177

Audio
ID : 2
Format : AC-3
Format/Info : Audio Coding 3
Mode extension : CM (complete main)
Codec ID : A_AC3
Duration : 23mn 26s
Bit rate mode : Constant
Bit rate : 192 Kbps
Channel(s) : 2 channels
Channel positions : Front: L R
Sampling rate : 48.0 KHz
Bit depth : 16 bits
Compression mode : Lossy
Stream size : 32.2 MiB (9%)

Раздача ведётся путём добавления новых серий, при каждом добавлении создаётся новый торрент. Чтобы начать докачку новой серии, пользователям необходимо сделать следующее:

- Остановить скачивание.
- Удалить старый торрент у себя из клиента (старые серии удалять не надо).
- Скачать новый торрент и запустить его у себя в клиенте вместо старого, при этом указать клиенту путь в старую папку куда и должно происходить скачивание новых серий.

Ваш клиент при этом должен произвести хеширование (проверку) старой папки (если не производит сам - помогите ему сделать это), и будет докачивать только те серии которых у вас ещё нет. Старые серии при этом не удаляются, а продолжают раздаваться!
Если вы уже удалили старые серии, то предотвратить повторную закачку старых серий можно, отжав галочку в соответствующих местах при запуске нового торрента. По возможности, желательно не удалять старые серии как можно дольше, чтобы релизер не столько продолжал раздавать старые серии, а смог сконцентрироваться на новых.
pb.wtf



Скачать Миша портит всё через торрент https://img10.lostpic.net/2020/04/13/acfd5a3b6471b4bdbc28c03a2bb847aa.th.jpg Скачать фильм Миша портит всё через торрент бесплантно в хорошем качестве Описание: Горшковы – самая обычная семья. Они просто хотели отпраздновать в тесном кругу день рождения своего сына. Скромный стол, свечи, ... 10 10 2
Торрент: Зарегистрирован [2021-01-12 22:22] · скачан: 16 раз
Статус: √ проверено
Размер: 1.8 GB
Как cкачать? Как скачать Миша портит всё через торрент | UTorrent

% Раздел Тема Автор DL S | L
Наши сериалы [ 1.49 GB ] Миша портит всё / Сезон: 2 / Серии: 1-5 из 17 [2021 WEB-DLRip] bober100 Скачать
4 | 0

28-11-2019 20:33  

Отключить всю рекламу на сайте

    Дорогой пользователь! Огромная просьба, поблагодарите релизера, оцените раздачу и оставьте свои комментарий, если Вы скачали Миша портит всё через торрент бесплатно! Внесите свою лепту в развитие PiratBit!
    Комментировать посты могут только пользователи прошедшие не сложную регистрацию
    Показать сообщения:    

    Миша портит всё через торрент
    Скачать бесплатно Миша портит всё
    Миша портит всё скачать торрент
    Миша портит всё смотреть онлайн
    Cкачать фильм Миша портит всё бесплатно
    Миша портит всё скачать торрент в хорошем качестве
    Миша портит всё смотреть онлайн бесплатно в хорошем качестве


    Вы не можете начинать темы
    Вы не можете отвечать на сообщения
    Вы не можете редактировать свои сообщения
    Вы не можете удалять свои сообщения
    Вы не можете голосовать в опросах
    Вы не можете прикреплять файлы к сообщениям
    Вы можете скачивать файлы