2 сезон

iTunes

MVO

1

2 сезон

iTunes

iTunes

1 сезон

RePack

30

Ultimate

ВАЖНО

ИГРА 18+

pack

RePack

MK11
pack

Легкие деньги

RePack

jed

RePack

fifa19

RePack

RDR2

RePack

NEED FOR SPEED™ PAYBACK

4 сезон

9 сезон

Бесстыжие 9 сезон

Все сериалы

все сериалы на PB.wtf

RePack

FAR CRY 5

Anonymous, доброй ночи, мы не успеваем собрать деньги на оплату серверов за декабрь и январь, помогите нам пожалуйста в это трудное время. В качестве благодарности мы отключим Вам всю рекламу на сайте (укажите свой ник в строку Ваше имя)!

×
  
Magnet ссылка

Еще по одной / Druk / Another Round (Томас Винтерберг) [2020, Драма, комедия, HDRip-AVC] [DUB] [iTunes] от MediaBit pb.wtf

Еще по одной через торрент pb.wtf

Раздают: 8 [ 72 KB/s ]
Размер: 1.46 GB | Добавлен: 7 д. назад | Торрент скачан:45 раз
Скачать  

11-01-2021 18:11 Еще по одной Скачать торрент  


Еще по одной / Druk / Another Round
Информация о фильме:
Название: Еще по одной
Оригинальное название: Druk / Another Round
Год выхода: 2020
Жанр: Драма, комедия
Режиссер: Томас Винтерберг

В ролях: Мадс Миккельсен, Томас Бо Ларсен, Магнус Милланг, Ларс Ранте, Мария Бонневи, Хелена Рейнгор Нойманн, Суссе Вольд, Магнус Сьёруп, Силас Корнелиус Ван, Альберт Рудбек Линдхардт

Описание: В ресторане собираются учитель истории, психологии, музыки и физрук, чтобы отметить 40-летие одного из них. И решают проверить научную теорию о том, что c самого рождения человек страдает от нехватки алкоголя в крови, а чтобы стать по-настоящему счастливым, нужно быть немного нетрезвым. Друзья договариваются наблюдать, как возлияния скажутся на их работе и личной жизни, и устанавливают правила: не пить вечером и по выходным. Казалось бы, что может пойти не так?



Страна: Дания, Швеция, Нидерланды
Студия: Det Danske Filminstitut, Netherlands Film Production Incentive, Svenska Filminstitutet (SFI)
Продолжительность: 01:56:19
Перевод: Профессиональный (полное дублирование) - iTunes



Информация о файле:
Кодек: AVC
Формат: MKV
Качество: HDRip-AVC
Видео: MPEG-4 AVC, 1024x512, 24.000 fps, 1401 kbps
Аудио RU: 48 kHz, AC3, 5.1, 384 Kbps
Субтитры: Русские (Full), английские
Навигация по главам: Да

General
Unique ID : 68342692155647463105656733840522019613 (0x336A52DFFC7F77C9F367F6C376AF031D)
Complete name : D:uTorrentРипы_от_wolf1245_MediaBitAnother Round.2020.iTunes.1.45Gb.HDRip-AVC_wolf1245_MediaBit.mkv
Format : Matroska
Format version : Version 4
File size : 1.46 GiB
Duration : 1 h 56 min
Overall bit rate : 1 794 kb/s
Movie name : Another Round.2020.iTunes.1.45Gb.HDRip-AVC_wolf1245_MediaBit
Encoded date : UTC 2021-01-11 17:59:27
Writing application : mkvmerge v52.0.0 ('Secret For The Mad') 64-bit
Writing library : libebml v1.4.1 + libmatroska v1.6.2
Video
ID : 1
Format : AVC
Format/Info : Advanced Video Codec
Format profile : High@L4.1
Format settings : CABAC / 12 Ref Frames
Format settings, CABAC : Yes
Format settings, Reference frames : 12 frames
Codec ID : V_MPEG4/ISO/AVC
Duration : 1 h 56 min
Bit rate : 1 401 kb/s
Width : 1 024 pixels
Height : 512 pixels
Display aspect ratio : 2.000
Frame rate mode : Constant
Frame rate : 24.000 FPS
Color space : YUV
Chroma subsampling : 4:2:0
Bit depth : 8 bits
Scan type : Progressive
Bits/(Pixel*Frame) : 0.111
Stream size : 1.14 GiB (78%)
Title : _wolf1245_MediaBit
Writing library : x264 core 157 r2958 57baac4
Encoding settings : cabac=1 / ref=12 / deblock=1:-2:-2 / analyse=0x3:0x133 / me=umh / subme=11 / psy=1 / psy_rd=1.05:0.05 / mixed_ref=1 / me_range=48 / chroma_me=1 / trellis=2 / 8x8dct=1 / cqm=0 / deadzone=21,11 / fast_pskip=0 / chroma_qp_offset=-3 / threads=10 / lookahead_threads=2 / sliced_threads=0 / nr=0 / decimate=0 / interlaced=0 / bluray_compat=0 / constrained_intra=0 / bframes=12 / b_pyramid=2 / b_adapt=2 / b_bias=0 / direct=3 / weightb=1 / open_gop=0 / weightp=2 / keyint=240 / keyint_min=24 / scenecut=40 / intra_refresh=0 / rc_lookahead=100 / rc=2pass / mbtree=0 / bitrate=1401 / ratetol=1.0 / qcomp=0.60 / qpmin=0 / qpmax=69 / qpstep=4 / cplxblur=20.0 / qblur=0.5 / vbv_maxrate=50000 / vbv_bufsize=62500 / nal_hrd=none / filler=0 / ip_ratio=1.40 / pb_ratio=1.30 / aq=1:0.80
Language : English
Default : Yes
Forced : No
Audio
ID : 2
Format : AC-3
Format/Info : Audio Coding 3
Commercial name : Dolby Digital
Codec ID : A_AC3
Duration : 1 h 56 min
Bit rate mode : Constant
Bit rate : 384 kb/s
Channel(s) : 6 channels
Channel layout : L R C LFE Ls Rs
Sampling rate : 48.0 kHz
Frame rate : 31.250 FPS (1536 SPF)
Compression mode : Lossy
Stream size : 319 MiB (21%)
Title : DUB | iTunes
Language : Russian
Service kind : Complete Main
Default : Yes
Forced : No
Text #1
ID : 3
Format : UTF-8
Codec ID : S_TEXT/UTF8
Codec ID/Info : UTF-8 Plain Text
Duration : 1 h 52 min
Bit rate : 61 b/s
Count of elements : 1009
Stream size : 50.5 KiB (0%)
Title : Full
Language : Russian
Default : No
Forced : No
Text #2
ID : 4
Format : UTF-8
Codec ID : S_TEXT/UTF8
Codec ID/Info : UTF-8 Plain Text
Duration : 1 h 52 min
Bit rate : 45 b/s
Count of elements : 1040
Stream size : 37.1 KiB (0%)
Title : Full
Language : English
Default : No
Forced : No
Menu
00:00:00.000 : :Chapter 01
00:09:59.666 : :Chapter 02
00:19:59.750 : :Chapter 03
00:29:59.875 : :Chapter 04
00:39:59.708 : :Chapter 05
00:49:59.833 : :Chapter 06
00:59:59.708 : :Chapter 07
01:09:59.791 : :Chapter 08
01:19:59.583 : :Chapter 09
01:29:59.875 : :Chapter 10
01:39:59.416 : :Chapter 11
01:49:59.916 : :Chapter 12
Релиз от: & &
pb.wtf



Скачать Еще по одной через торрент https://i114.fastpic.ru/big/2021/0111/40/d1791cea2bf0b74d92f50c1928c20340.jpg Скачать фильм Еще по одной через торрент бесплантно в хорошем качестве Описание: В ресторане собираются учитель истории, психологии, музыки и физрук, чтобы отметить 40-летие одного из них. И решают проверить ... 10 10 3
Торрент: Зарегистрирован [2021-01-11 18:11] · скачан: 45 раз
Статус: √ проверено
Размер: 1.46 GB
Как cкачать? Как скачать Еще по одной через торрент | UTorrent

28-11-2019 20:33  

Отключить всю рекламу на сайте

    Дорогой пользователь! Огромная просьба, поблагодарите релизера, оцените раздачу и оставьте свои комментарий, если Вы скачали Еще по одной через торрент бесплатно! Внесите свою лепту в развитие PiratBit!
    Комментировать посты могут только пользователи прошедшие не сложную регистрацию
    Показать сообщения:    

    Еще по одной через торрент
    Скачать бесплатно Еще по одной
    Еще по одной скачать торрент
    Еще по одной смотреть онлайн
    Cкачать фильм Еще по одной бесплатно
    Еще по одной скачать торрент в хорошем качестве
    Еще по одной смотреть онлайн бесплатно в хорошем качестве


    Вы не можете начинать темы
    Вы не можете отвечать на сообщения
    Вы не можете редактировать свои сообщения
    Вы не можете удалять свои сообщения
    Вы не можете голосовать в опросах
    Вы не можете прикреплять файлы к сообщениям
    Вы можете скачивать файлы