2 сезон

iTunes

MVO

1

2 сезон

iTunes

iTunes

1 сезон

RePack

30

Новинка

ВАЖНО

ИГРА 18+

pack

RePack

MK11
pack

Легкие деньги

RePack

jed

RePack

fifa19

RePack

RDR2

RePack

NEED FOR SPEED™ PAYBACK

4 сезон

9 сезон

Бесстыжие 9 сезон

Все сериалы

все сериалы на PB.wtf

RePack

FAR CRY 5

Anonymous, доброй ночи, мы не успеваем собрать деньги на оплату серверов за декабрь и январь, помогите нам пожалуйста в это трудное время. В качестве благодарности мы отключим Вам всю рекламу на сайте (укажите свой ник в строку Ваше имя)!

×
  
Magnet ссылка

Крестная мама / La Daronne (Жан-Поль Саломе) [2020 г., драма, комедия, криминал, HDRip, Дубляж "iTunes"] pb.wtf

Крестная мама через торрент pb.wtf

Раздают: 6 [ 0 KB/s ]
Размер: 715 MB | Добавлен: 7 д. назад | Торрент скачан:18 раз
Скачать  

11-01-2021 18:27 Крестная мама Скачать торрент  

Крестная мама / La Daronne
Год выпуска: 2020
Страна: Франция / Les Films du Lendemain, La Boétie Films, Le Pacte
Жанр: драма, комедия, криминал
Продолжительность: 01:45:14
Перевод: Дубляж iTunes
«Поймай её, если сможешь»

Режиссер: Жан-Поль Саломе

rating

В ролях: Изабель Юппер, Ипполит Жирардо, Фарида Ушани, Лилиан Ровер, Ирис Бри, Надя Нгуйен, Ребекка Мардер, Рашид Гуэллаз, Мурад Будауд, Юссеф Сарауи

Описание: Талантливая переводчица работает в полиции, помогая раскрывать преступления. Однажды ей становится известно о крупной партии наркотиков. Соблазн изменить жизнь слишком велик. И вот она превращается в НаркоМаму, которая строит свою империю. Теперь вся полиция охотится за ней.

Качество: HDRip
Формат: AVI
Видео кодек: DivX
Аудио кодек: MP3
Видео: 640x272 (2.35:1), 23.976 fps, XviD MPEG-4 ~808 kbps avg, 0.19 bit/pixel
Аудио: 48 kHz, MPEG Layer 3, 2 ch, ~128.00 kbps avg
скриншот   скриншот   скриншот   скриншот   скриншот   скриншот   скриншот   скриншот  

Общее
Полное имя : G:\ФИЛЬМЫ\Крестная мама.2020.D.HDRip.avi
Формат : AVI
Формат/Информация : Audio Video Interleave
Размер файла : 715 Мбайт
Продолжительность : 1 ч. 45 м.
Режим общего битрейта : Переменный
Общий поток : 950 Кбит/сек
Программа кодирования : VirtualDubMod 1.5.10.3 | www.virtualdub-fr.org || (build 2550/release)
Библиотека кодирования : VirtualDubMod build 2550/release

Видео
Идентификатор : 0
Формат : MPEG-4 Visual
Профиль формата : Advanced Simple@L5
Настройки формата : BVOP2
Параметр BVOP формата : 2
Параметр QPel формата : Нет
Параметр GMC формата : Без точки перехода
Параметр матрицы формата : Default (H.263)
Режим смешивания : Сжатый битовый поток
Идентификатор кодека : XVID
Идентификатор кодека/Подсказка : XviD
Продолжительность : 1 ч. 45 м.
Битрейт : 809 Кбит/сек
Ширина : 640 пикселей
Высота : 272 пикселя
Соотношение сторон : 2,35:1
Частота кадров : 23,976 (24000/1001) кадра/сек
Цветовое пространство : YUV
Субдискретизация насыщенности : 4:2:0
Битовая глубина : 8 бит
Тип развёртки : Прогрессивная
Метод сжатия : С потерями
Бит/(Пиксели*Кадры) : 0.194
Размер потока : 609 Мбайт (85%)
Библиотека кодирования : XviD 1.2.1 (UTC 2008-12-04)

Аудио
Идентификатор : 1
Формат : MPEG Audio
Версия формата : Version 1
Профиль формата : Layer 3
Настройки формата : Joint stereo / MS Stereo
Идентификатор кодека : 55
Идентификатор кодека/Подсказка : MP3
Продолжительность : 1 ч. 45 м.
Вид битрейта : Переменный
Битрейт : 128 Кбит/сек
Каналы : 2 канала
Частота : 48,0 КГц
Метод сжатия : С потерями
Размер потока : 96,3 Мбайт (13%)
Выравнивание : Соединение по промежуткам
Продолжительность промежутка : 24 мс. (0,58 видеокадр)
Время предзагрузки промежутка : 486 мс.
Библиотека кодирования : LAME3.99r
Настройки программы : -m j -V 4 -q 2 -lowpass 17 -b 128

pb.wtf



Скачать Крестная мама через торрент https://pic1.kartinco.top/images/12/9xf26.jpg Скачать фильм Крестная мама через торрент бесплантно в хорошем качестве Описание: Талантливая переводчица работает в полиции, помогая раскрывать преступления. Однажды ей становится известно о крупной партии ... 5 10 1
Торрент: Зарегистрирован [2021-01-11 18:27] · скачан: 18 раз
Статус: √ проверено
Размер: 715 MB
Как cкачать? Как скачать Крестная мама через торрент | UTorrent

% Раздел Тема Автор DL S | L
Фильмы 2019-2020 [DVDrip, WEB-DLRip, HDrip] (DUB, MVO) [ 1.45 GB ] Крестная мама / La Daronne [2020 HDRip-AVC] от MediaBit Lithuania Скачать
6 | 0
Фильмы (Blu-ray, BD-Remux, HDDVD) [ 29.09 GB ] Крестная мама / La Daronne [2020 BD Remux 1080p] bober100 Скачать
4 | 0
Фильмы [HD 720p, 1080p] (Хороший звук DUB, MVO) [ 9.28 GB ] Крестная мама / La Daronne [2020 BDRip 1080p] bober100 Скачать
9 | 0
Фильмы [HD 720p, 1080p] (Хороший звук DUB, MVO) [ 5.74 GB ] Крестная мама / La Daronne [2020 BDRip 720p] bober100 Скачать
7 | 0
Фильмы 2019-2020 [DVDrip, WEB-DLRip, HDrip] (DUB, MVO) [ 1.41 GB ] Крестная мама / La Daronne [2020 BDRip] - Twi7ter Скачать
923 | 48

28-11-2019 20:33  

Отключить всю рекламу на сайте

    Дорогой пользователь! Огромная просьба, поблагодарите релизера, оцените раздачу и оставьте свои комментарий, если Вы скачали Крестная мама через торрент бесплатно! Внесите свою лепту в развитие PiratBit!
    Комментировать посты могут только пользователи прошедшие не сложную регистрацию
    Показать сообщения:    

    Крестная мама через торрент
    Скачать бесплатно Крестная мама
    Крестная мама скачать торрент
    Крестная мама смотреть онлайн
    Cкачать фильм Крестная мама бесплатно
    Крестная мама скачать торрент в хорошем качестве
    Крестная мама смотреть онлайн бесплатно в хорошем качестве


    Вы не можете начинать темы
    Вы не можете отвечать на сообщения
    Вы не можете редактировать свои сообщения
    Вы не можете удалять свои сообщения
    Вы не можете голосовать в опросах
    Вы не можете прикреплять файлы к сообщениям
    Вы можете скачивать файлы