2 сезон

iTunes

MVO

1

2 сезон

iTunes

iTunes

1 сезон

RePack

30

Новинка

ВАЖНО

ИГРА 18+

pack

RePack

MK11
pack

Легкие деньги

RePack

jed

RePack

fifa19

RePack

RDR2

RePack

NEED FOR SPEED™ PAYBACK

4 сезон

9 сезон

Бесстыжие 9 сезон

Все сериалы

все сериалы на PB.wtf

RePack

FAR CRY 5

Anonymous, добрый день, мы не успеваем собрать деньги на оплату серверов за декабрь и январь, помогите нам пожалуйста в это трудное время. В качестве благодарности мы отключим Вам всю рекламу на сайте (укажите свой ник в строку Ваше имя)!

×
  
Magnet ссылка

Еще по одной / Druk (Томас Винтерберг) [2020 г., драма, комедия, HDRip, Дубляж "iTunes"] pb.wtf

Еще по одной через торрент pb.wtf

Раздают: 10 [ 0 KB/s ]
Размер: 714 MB | Добавлен: 7 д. назад | Торрент скачан:31 раз
Скачать  

12-01-2021 18:47 Еще по одной Скачать торрент  

Еще по одной / Druk
Год выпуска: 2020
Страна: Дания, Швеция, Нидерланды / Zentropa Entertainments, Film i Väst, Zentropa International Sweden
Жанр: драма, комедия
Продолжительность: 01:56:19
Перевод: Дубляж (iTunes)

Режиссер: Томас Винтерберг

rating

В ролях: Мадс Миккельсен, Томас Бо Ларсен, Магнус Милланг, Ларс Ранте, Мария Бонневи, Хелена Рейнгор Нойманн, Суссе Вольд, Магнус Сьёруп, Силас Корнелиус Ван, Альберт Рудбек Линдхардт

Описание: Заходят как-то в бар профессор истории, психолог, музыкант и физрук. И решают проверить научную теорию о том, что c самого рождения человек страдает от нехватки алкоголя в крови. Чтобы стать по-настоящему счастливым, нужно быть немного нетрезвым. Бокал вина утром, пинта пива в обед, стакан виски вечером. Казалось бы, что может пойти не так?

Качество: HDRip
Формат: AVI
Видео кодек: DivX
Аудио кодек: MP3
Видео: 640x320 (2.00:1), 24.000 fps, XviD MPEG-4 ~720 kbps avg, 0.15 bit/pixel
Аудио: 48 kHz, MPEG Layer 3, 2 ch, ~128.00 kbps avg








Общее
Полное имя : G:\ФИЛЬМЫ\Еще по одной.2020.D.HDRip.avi
Формат : AVI
Формат/Информация : Audio Video Interleave
Размер файла : 714 Мбайт
Продолжительность : 1 ч. 56 м.
Общий поток : 858 Кбит/сек
Программа кодирования : VirtualDubMod 1.5.10.3 | www.virtualdub-fr.org || (build 2550/release)
Библиотека кодирования : VirtualDubMod build 2550/release

Видео
Идентификатор : 0
Формат : MPEG-4 Visual
Профиль формата : Advanced Simple@L5
Настройки формата : BVOP2
Параметр BVOP формата : 2
Параметр QPel формата : Нет
Параметр GMC формата : Без точки перехода
Параметр матрицы формата : Default (MPEG)
Режим смешивания : Сжатый битовый поток
Идентификатор кодека : XVID
Идентификатор кодека/Подсказка : XviD
Продолжительность : 1 ч. 56 м.
Битрейт : 721 Кбит/сек
Ширина : 640 пикселей
Высота : 320 пикселей
Соотношение сторон : 2,000
Частота кадров : 24,000 кадра/сек
Цветовое пространство : YUV
Субдискретизация насыщенности : 4:2:0
Битовая глубина : 8 бит
Тип развёртки : Прогрессивная
Метод сжатия : С потерями
Бит/(Пиксели*Кадры) : 0.147
Размер потока : 600 Мбайт (84%)
Библиотека кодирования : XviD 1.2.1 (UTC 2008-12-04)

Аудио
Идентификатор : 1
Формат : MPEG Audio
Версия формата : Version 1
Профиль формата : Layer 3
Настройки формата : Joint stereo / MS Stereo
Идентификатор кодека : 55
Идентификатор кодека/Подсказка : MP3
Продолжительность : 1 ч. 56 м.
Вид битрейта : Постоянный
Битрейт : 128 Кбит/сек
Каналы : 2 канала
Частота : 48,0 КГц
Частота кадров : 41,667 кадра/сек (1152 SPF)
Метод сжатия : С потерями
Размер потока : 106 Мбайт (15%)
Выравнивание : Соединение по промежуткам
Продолжительность промежутка : 42 мс. (1,00 видеокадр)
Время предзагрузки промежутка : 504 мс.
Библиотека кодирования : LAME3.99r
Настройки программы : -m j -V 4 -q 2 -lowpass 17 -b 128

pb.wtf



Скачать Еще по одной через торрент https://pic1.kartinco.top/new/img/2021-01/12/e4y1z252qs0kls7up3i3idmd5.png Скачать фильм Еще по одной через торрент бесплантно в хорошем качестве Описание: Заходят как-то в бар профессор истории, психолог, музыкант и физрук. И решают проверить научную теорию о том, что c самого ... 10 10 2
Торрент: Зарегистрирован [2021-01-12 18:47] · скачан: 31 раз
Статус: √ проверено
Размер: 714 MB
Как cкачать? Как скачать Еще по одной через торрент | UTorrent

% Раздел Тема Автор DL S | L
Фильмы 2019-2020 [DVDrip, WEB-DLRip, HDrip] (DUB, MVO) [ 2.13 GB ] Еще по одной / Druk / Another Round [2020 BDRip] - Twi7ter Скачать
89 | 7
Фильмы 2019-2020 [DVDrip, WEB-DLRip, HDrip] (DUB, MVO) [ 1.41 GB ] Еще по одной / Druk / Another Round [2020 BDRip] - Twi7ter Скачать
43 | 3
Фильмы 2019-2020 [DVDrip, WEB-DLRip, HDrip] (DUB, MVO) [ 1.46 GB ] Еще по одной / Druk / Another Round [2020 HDRip-AVC] от MediaBit Lithuania Скачать
7 | 0
Фильмы 2019-2020 [DVDrip, WEB-DLRip, HDrip] (DUB, MVO) [ 2.13 GB ] Еще по одной / Druk / Another Round [2020 BDRip] bober100 Скачать
4 | 0
Фильмы [HD 720p, 1080p] (Хороший звук DUB, MVO) [ 9.61 GB ] Еще по одной / Druk / Another Round [2020 BDRip 1080p] bober100 Скачать
20 | 0
Фильмы [HD 720p, 1080p] (Хороший звук DUB, MVO) [ 5.71 GB ] Еще по одной / Druk / Another Round [2020 BDRip 720p] bober100 Скачать
14 | 0
Фильмы (Blu-ray, BD-Remux, HDDVD) [ 20.17 GB ] Еще по одной / Druk / Another Round [2020 BD Remux 1080p] bober100 Скачать
7 | 0

28-11-2019 20:33  

Отключить всю рекламу на сайте

    Дорогой пользователь! Огромная просьба, поблагодарите релизера, оцените раздачу и оставьте свои комментарий, если Вы скачали Еще по одной через торрент бесплатно! Внесите свою лепту в развитие PiratBit!
    Комментировать посты могут только пользователи прошедшие не сложную регистрацию
    Показать сообщения:    

    Еще по одной через торрент
    Скачать бесплатно Еще по одной
    Еще по одной скачать торрент
    Еще по одной смотреть онлайн
    Cкачать фильм Еще по одной бесплатно
    Еще по одной скачать торрент в хорошем качестве
    Еще по одной смотреть онлайн бесплатно в хорошем качестве


    Вы не можете начинать темы
    Вы не можете отвечать на сообщения
    Вы не можете редактировать свои сообщения
    Вы не можете удалять свои сообщения
    Вы не можете голосовать в опросах
    Вы не можете прикреплять файлы к сообщениям
    Вы можете скачивать файлы