2 сезон

iTunes

MVO

1

2 сезон

iTunes

iTunes

1 сезон

RePack

30

Ultimate

ВАЖНО

ИГРА 18+

pack

RePack

MK11
pack

Легкие деньги

RePack

jed

RePack

fifa19

RePack

RDR2

RePack

NEED FOR SPEED™ PAYBACK

4 сезон

9 сезон

Бесстыжие 9 сезон

Все сериалы

все сериалы на PB.wtf

RePack

FAR CRY 5

Anonymous, доброй ночи, мы не успеваем собрать деньги на оплату серверов за декабрь и январь, помогите нам пожалуйста в это трудное время. В качестве благодарности мы отключим Вам всю рекламу на сайте (укажите свой ник в строку Ваше имя)!

×
  
Magnet ссылка

Breeding The Elf / Breeding The Elf [2020 г., Anal Sex, Bareback, Blowjob, Christmas Theme, Cumshots, Deepthroat, Oral, Piercings, Sex Toys, Tattoos, Twink, WEBRip 1080p, Оригинальный] pb.wtf

Breeding The Elf через торрент pb.wtf

Размер: 622 MB | Добавлен: 5 д. назад | Торрент скачан:26 раз
Скачать  

13-01-2021 11:18 Breeding The Elf Скачать торрент  

Breeding The Elf
Год выпуска: 2020
Страна: Men.com
Жанр: Anal Sex, Bareback, Blowjob, Christmas Theme, Cumshots, Deepthroat, Oral, Piercings, Sex Toys, Tattoos, Twink
Продолжительность: 00:26:31
Перевод: Оригинальный

В ролях: Tannor Reed, Chris Damned

Описание: Описание: Bored elf Elf (Tannor Reed) is listening to Santa check his list yet again when delivery guy Chris Damned arrives with a package just for him! As Elf accepts the special delivery, the box comes open and all the dildos he ordered spill to the floor! Elf bends over to sign for the parcel, and Chris admires his red-clad, elfin ass. The horny top starts to get hard, and Elf hurries to suck his big cock. Chris tears open the bottom''s overalls, spitting on his hole, then sliding a finger inside before stretching him with one of his new dildos. The top fucks the horny elf doggystyle and missionary on the desk till Santa catches them - but he just encourages Chris to fuck his elf even harder! Elf rides Chris''s cock on the desk till the top pulls out and cums. Chris Damned is definitely on the naughty list for good!

Качество:Тип HD видео: 1080p
Формат: MP4
Видео кодек: H.264
Аудио кодек: AAC
Видео: MPEG4 Video (H264) 1920x1080 23.976fps 3148kbps
Аудио#1: AAC 48000Hz stereo 127kbps
Общее
Полное имя : D:\торенты\zagrujehhie\MEN - Breeding The Elf - Tannor Reed & Chris Damned.mp4
Формат : MPEG-4
Профиль формата : Base Media
Идентификатор кодека : isom (isom/iso2/avc1/mp41)
Размер файла : 622 Мбайт
Продолжительность : 26 м. 30 с.
Общий поток : 3 281 Кбит/сек
Программа кодирования : Lavf58.46.101

Видео
Идентификатор : 1
Формат : AVC
Формат/Информация : Advanced Video Codec
Профиль формата : High@L5
Настройки формата : CABAC / 5 Ref Frames
Параметр CABAC формата : Да
Параметр RefFrames формата : 5 кадров
Идентификатор кодека : avc1
Идентификатор кодека/Информация : Advanced Video Coding
Продолжительность : 26 м. 30 с.
Битрейт : 3 148 Кбит/сек
Ширина : 1 920 пикселей
Высота : 1 080 пикселей
Соотношение сторон : 16:9
Режим частоты кадров : Постоянный
Частота кадров : 23,976 (24000/1001) кадра/сек
Цветовое пространство : YUV
Субдискретизация насыщенности : 4:2:0
Битовая глубина : 8 бит
Тип развёртки : Прогрессивная
Бит/(Пиксели*Кадры) : 0.063
Размер потока : 597 Мбайт (96%)
Библиотека кодирования : x264 core 159
Настройки программы : cabac=1 / ref=5 / deblock=1:0:0 / analyse=0x3:0x113 / me=hex / subme=8 / psy=1 / psy_rd=1.00:0.00 / mixed_ref=1 / me_range=16 / chroma_me=1 / trellis=2 / 8x8dct=1 / cqm=0 / deadzone=21,11 / fast_pskip=1 / chroma_qp_offset=-2 / threads=34 / lookahead_threads=5 / sliced_threads=0 / nr=0 / decimate=1 / interlaced=0 / bluray_compat=0 / constrained_intra=0 / bframes=3 / b_pyramid=2 / b_adapt=1 / b_bias=0 / direct=3 / weightb=1 / open_gop=0 / weightp=2 / keyint=90 / keyint_min=46 / scenecut=0 / intra_refresh=0 / rc_lookahead=50 / rc=crf / mbtree=1 / crf=23.0 / qcomp=0.60 / qpmin=0 / qpmax=69 / qpstep=4 / vbv_maxrate=14000 / vbv_bufsize=583 / crf_max=27.0 / nal_hrd=none / filler=0 / ip_ratio=1.40 / aq=1:1.00
Codec configuration box : avcC

Аудио
Идентификатор : 2
Формат : AAC LC
Формат/Информация : Advanced Audio Codec Low Complexity
Идентификатор кодека : mp4a-40-2
Продолжительность : 26 м. 30 с.
Duration_LastFrame : -8 мс.
Вид битрейта : Постоянный
Битрейт : 128 Кбит/сек
Каналы : 2 канала
Channel layout : L R
Частота : 48,0 КГц
Частота кадров : 46,875 кадров/сек (1024 SPF)
Метод сжатия : С потерями
Размер потока : 24,2 Мбайт (4%)
Default : Да
Alternate group : 1

pb.wtf



pack Скачать Breeding The Elf через торрент https://c.radikal.ru/c17/2101/a1/57e503c73303.jpg Скачать фильм Breeding The Elf через торрент бесплантно в хорошем качестве Описание: Описание: Bored elf Elf (Tannor Reed) is listening to Santa check his list yet again when delivery guy Chris Damned arrives with ... 1 10 2
Торрент: Зарегистрирован [2021-01-13 11:18] · скачан: 26 раз
Статус: √ проверено
Размер: 622 MB
Как cкачать? Как скачать Breeding The Elf через торрент | UTorrent

28-11-2019 20:33  

Отключить всю рекламу на сайте

    Дорогой пользователь! Огромная просьба, поблагодарите релизера, оцените раздачу и оставьте свои комментарий, если Вы скачали Breeding The Elf через торрент бесплатно! Внесите свою лепту в развитие PiratBit!
    Комментировать посты могут только пользователи прошедшие не сложную регистрацию
    Показать сообщения:    

    Breeding The Elf через торрент
    Скачать бесплатно Breeding The Elf
    Breeding The Elf скачать торрент
    Breeding The Elf смотреть онлайн
    Cкачать фильм Breeding The Elf бесплатно
    Breeding The Elf скачать торрент в хорошем качестве
    Breeding The Elf смотреть онлайн бесплатно в хорошем качестве


    Вы не можете начинать темы
    Вы не можете отвечать на сообщения
    Вы не можете редактировать свои сообщения
    Вы не можете удалять свои сообщения
    Вы не можете голосовать в опросах
    Вы не можете прикреплять файлы к сообщениям
    Вы можете скачивать файлы