2 сезон

iTunes

MVO

1

2 сезон

iTunes

iTunes

1 сезон

RePack

30

Новинка

ВАЖНО

ИГРА 18+

pack

RePack

MK11
pack

Легкие деньги

RePack

jed

RePack

fifa19

RePack

RDR2

RePack

NEED FOR SPEED™ PAYBACK

4 сезон

9 сезон

Бесстыжие 9 сезон

Все сериалы

все сериалы на PB.wtf

RePack

FAR CRY 5

Anonymous, добрый день, мы не успеваем собрать деньги на оплату серверов за декабрь и январь, помогите нам пожалуйста в это трудное время. В качестве благодарности мы отключим Вам всю рекламу на сайте (укажите свой ник в строку Ваше имя)!

×
  
Magnet ссылка

Когда матерей нет дома (Павле Чарквиани) [1977 г., комедия, детский, короткометражный, SATRip-AVC] pb.wtf

Когда матерей нет дома через торрент pb.wtf

Раздают: 2 [ 65 KB/s ]
Размер: 757 MB | Добавлен: 6 д. назад | Торрент скачан:10 раз
Скачать  

13-01-2021 17:54 Когда матерей нет дома Скачать торрент  

Когда матерей нет дома

Год выпуска: 1977
Страна: СССР | Грузия-фильм
Жанр: комедия, детский, короткометражный
Продолжительность: 00:32:50
Перевод: Дублированный

Режиссер: Павле Чарквиани

В ролях: Гия Кусрашвили, Гиви Берикашвили, Тинатин Бурбуташвили, Автандил Верулеишвили, Тенгиз Арчвадзе, Симон Берикашвили, Авто Гиоргобиани, Леомер Гугушвили

Описание: Телефильм о том, что может произойти с папами и сыновьями, когда мамы уезжают сдавать экзамены в институт.



Файл
Формат: MKV
Кодек: x264
Качество: SATRip-AVC (DVB)
Видео: MPEG-4 AVC, 720x572@768x572, 25.000 fps, 3028 kbps, 0.294 bit/pixel
Аудио: Русский, AC3, 2 chnls, 192 kbps | DUB
x264 [info]: frame I:348 Avg QP:17.36 size: 63751
x264 [info]: frame P:13389 Avg QP:19.29 size: 29904
x264 [info]: frame B:35533 Avg QP:20.97 size: 9103
x264 [info]: consecutive B-frames: 4.4% 6.4% 14.0% 29.5% 20.6% 22.4% 2.1% 0.4% 0.1% 0.1% 0.0%
Format : Matroska
Format version : Version 4
File size : 757 MiB
Duration : 32 min 50 s
Overall bit rate : 3 223 kb/s
Movie name : Когда матерей нет дома (1977) - Rip by -{am}-
Encoded date : UTC 2021-01-12 17:48:22
Writing application : mkvmerge v7.2.0 ('On Every Street') 32bit built on Sep 13 2014 15:42:11
Writing library : libebml v1.3.0 + libmatroska v1.4.1
Attachments : poster.png

Video
ID : 1
Format : AVC
Format/Info : Advanced Video Codec
Format profile : High@L4.1
Format settings : CABAC / 16 Ref Frames
Format settings, CABAC : Yes
Format settings, Reference : 16 frames
Codec ID : V_MPEG4/ISO/AVC
Duration : 32 min 50 s
Bit rate : 3 028 kb/s
Width : 720 pixels
Height : 572 pixels
Display aspect ratio : 4:3
Frame rate mode : Constant
Frame rate : 25.000 FPS
Color space : YUV
Chroma subsampling : 4:2:0
Bit depth : 8 bits
Scan type : Progressive
Bits/(Pixel*Frame) : 0.294
Stream size : 711 MiB (94%)
Title : Kogda.materei.net.doma.1977.{am}.768.Rus
Writing library : x264 core 161 r3027+53 2464769 t_mod_New [(8 & 10)-bit@all X86_64]
Encoding settings : cabac=1 / ref=16 / deblock=1:-3:-1 / analyse=0x3:0x113 / me=umh / subme=11 / psy=1 / fade_compensate=0.00 / psy_rd=1.00:0.20 / mixed_ref=1 / me_range=48 / chroma_me=1 / trellis=2 / 8x8dct=1 / cqm=2 / deadzone=21,11 / fast_pskip=0 / chroma_qp_offset=-5 / threads=18 / lookahead_threads=4 / sliced_threads=0 / nr=0 / decimate=0 / interlaced=0 / bluray_compat=0 / constrained_intra=0 / fgo=0 / bframes=10 / b_pyramid=2 / b_adapt=2 / b_bias=0 / direct=3 / weightb=1 / open_gop=0 / weightp=2 / keyint=250 / keyint_min=25 / scenecut=40 / intra_refresh=0 / rc_lookahead=40 / rc=crf / mbtree=0 / crf=17.0000 / qcomp=0.60 / qpmin=0:0:0 / qpmax=30:30:30 / qpstep=4 / vbv_maxrate=50000 / vbv_bufsize=62500 / crf_max=30.0 / nal_hrd=none / filler=0 / ip_ratio=1.40 / pb_ratio=1.30 / aq=3:1.00 / aq-sensitivity=10.00 / aq-factor=1.00:1.00:1.00 / aq2=0 / aq3=0
Language : Georgian
Default : Yes
Forced : No
Color range : Limited
Matrix coefficients : BT.470 System B/G

Audio
ID : 2
Format : AC-3
Format/Info : Audio Coding 3
Commercial name : Dolby Digital
Codec ID : A_AC3
Duration : 32 min 50 s
Bit rate mode : Constant
Bit rate : 192 kb/s
Channel(s) : 2 channels
Channel layout : L R
Sampling rate : 48.0 kHz
Frame rate : 31.250 FPS (1536 SPF)
Compression mode : Lossy
Stream size : 45.1 MiB (6%)
Title : DUB
Language : Russian
Service kind : Complete Main
Default : Yes
Forced : No
скриншот  скриншот  скриншот  скриншот  

скриншот  скриншот  скриншот  скриншот  

скриншот  скриншот  скриншот  скриншот  
pb.wtf



Скачать Когда матерей нет дома через торрент https://img11.lostpic.net/2021/01/13/456df576d8ed6cc10b4116cd1e2412d4.th.png Скачать фильм Когда матерей нет дома через торрент бесплантно в хорошем качестве Описание: Телефильм о том, что может произойти с папами и сыновьями, когда мамы уезжают сдавать экзамены в институт.ФайлФормат: MKVКодек: ... 10 10 1
Торрент: Зарегистрирован [2021-01-13 17:54] · скачан: 10 раз
Статус: √ проверено
Размер: 757 MB
Как cкачать? Как скачать Когда матерей нет дома через торрент | UTorrent

28-11-2019 20:33  

Отключить всю рекламу на сайте


    Дорогой пользователь! Огромная просьба, поблагодарите релизера, оцените раздачу и оставьте свои комментарий, если Вы скачали Когда матерей нет дома через торрент бесплатно! Внесите свою лепту в развитие PiratBit!
    Комментировать посты могут только пользователи прошедшие не сложную регистрацию
    Показать сообщения:    

    Когда матерей нет дома через торрент
    Скачать бесплатно Когда матерей нет дома
    Когда матерей нет дома скачать торрент
    Когда матерей нет дома смотреть онлайн
    Cкачать фильм Когда матерей нет дома бесплатно
    Когда матерей нет дома скачать торрент в хорошем качестве
    Когда матерей нет дома смотреть онлайн бесплатно в хорошем качестве


    Вы не можете начинать темы
    Вы не можете отвечать на сообщения
    Вы не можете редактировать свои сообщения
    Вы не можете удалять свои сообщения
    Вы не можете голосовать в опросах
    Вы не можете прикреплять файлы к сообщениям
    Вы можете скачивать файлы