2 сезон

iTunes

MVO

1

2 сезон

iTunes

iTunes

1 сезон

RePack

30

Новинка

ВАЖНО

ИГРА 18+

pack

RePack

MK11
pack

Легкие деньги

RePack

jed

RePack

fifa19

RePack

RDR2

RePack

NEED FOR SPEED™ PAYBACK

4 сезон

9 сезон

Бесстыжие 9 сезон

Все сериалы

все сериалы на PB.wtf

RePack

FAR CRY 5

Anonymous, доброе утро, мы не успеваем собрать деньги на оплату серверов за декабрь и январь, помогите нам пожалуйста в это трудное время. В качестве благодарности мы отключим Вам всю рекламу на сайте (укажите свой ник в строку Ваше имя)!

×
  
Magnet ссылка

Линия горизонта / Лінія горизонту / Horizon Line (Микаэль Марсимаин) [2020, триллер, WEB-DL 1080p] [Ukr DUB] pb.wtf

Линия горизонта через торрент pb.wtf

Раздают: 3 [ 0 KB/s ] Качают: 1 [ 0 KB/s ]
Размер: 3.3 GB | Добавлен: 5 д. назад | Торрент скачан:29 раз
Скачать  

13-01-2021 18:02 Линия горизонта Скачать торрент  

Линия горизонта / Лінія горизонту / Horizon Line
Год выпуска: 2020
Страна: Швеция, США
Жанр: триллер
Продолжительность: 01:31:33
Перевод: Украинский (дублированный)скриншот  
Субтитры: английские

Режиссер: Микаэль Марсимаин

В ролях: Александр Дреймон, Эллисон Уильямс, Кит Дэвид, Пёрл Маки, Джумэйн Хантер, Аманда Кхан, Ламин Тамба, Орелейт Доэрти, Франсуа Грёнвальд, Марк Редмонд

Описание: Сара и Джексон собирались полететь на небольшом самолете на свадьбу друга. За штурвалом опытный пилот, и ничто не предвещало беды, пока у того не случился сердечный приступ прямо в небе. Сара и Джексон на огромной высоте, нет никакой связи, неизвестно их точное местонахождение, и главное — они совершенно без понятия, как посадить самолет. Плюс к тому, вокруг только океан и небо, и судя по обстановке, их вот-вот накроет бушующий шторм...

rating


Качество: WEB-DL 1080p
Формат видео: MKV
Видео кодек: x.264
Аудио кодек: AC3
Видео: AVC, 1920x804, ~4475 Kbps, 23,976 fps
Аудио #1: Украинский, AC3, 48 Гц, 192 Кбит/сек, 2 ch - Ukr DUB
Аудио #2: Английский, AC3, 48 Гц, 384 Кбит/сек, 6 ch
скриншот  скриншот  скриншот  скриншот  
General
Unique ID : 208451047179668707684920431887400359374 (0x9CD2361C5BD66EFB951DCDABEF80D5CE)
Complete name : G:\Horizon Line.2020.WEB-DL1080p.[Ukr DUB], [Eng].vvv.mkv
Format : Matroska
Format version : Version 4 / Version 2
File size : 3.30 GiB
Duration : 1h 31mn
Overall bit rate : 5 153 Kbps
Movie name : Horizon Line.2020.WEB-DL1080p.[Ukr DUB], [Eng].vvv
Encoded date : UTC 2021-01-13 17:54:38
Writing application : mkvmerge v6.1.0 ('Old Devil') built on Mar 2 2013 14:32:37
Writing library : libebml v1.3.0 + libmatroska v1.4.0
Attachements : small_cover.jpg / small_cover_land.jpg / cover.jpg / cover_land.jpg
DURATION : 01:20:59.693000000
NUMBER_OF_FRAMES : 881
NUMBER_OF_BYTES : 26044
_STATISTICS_WRITING_APP : mkvmerge v51.0.0 ('I Wish') 64-bit
_STATISTICS_WRITING_DATE_UTC : 2021-01-12 08:04:46
_STATISTICS_TAGS : BPS DURATION NUMBER_OF_FRAMES NUMBER_OF_BYTES

Video
ID : 1
Format : AVC
Format/Info : Advanced Video Codec
Format profile : High@L4
Format settings, CABAC : Yes
Format settings, ReFrames : 5 frames
Codec ID : V_MPEG4/ISO/AVC
Duration : 1h 31mn
Bit rate : 4 475 Kbps
Width : 1 920 pixels
Height : 804 pixels
Display aspect ratio : 2.40:1
Frame rate mode : Constant
Frame rate : 23.976 fps
Color space : YUV
Chroma subsampling : 4:2:0
Bit depth : 8 bits
Scan type : Progressive
Bits/(Pixel*Frame) : 0.121
Stream size : 2.86 GiB (87%)
Title : Horizon Line.2020.WEB-DL1080p.[Ukr DUB], [Eng].vvv
Language : English
Default : Yes
Forced : No
Color range : Limited
Color primaries : BT.709
Transfer characteristics : BT.709
Matrix coefficients : BT.709

Audio #1
ID : 2
Format : AC-3
Format/Info : Audio Coding 3
Mode extension : CM (complete main)
Format settings, Endianness : Big
Codec ID : A_AC3
Duration : 1h 31mn
Bit rate mode : Constant
Bit rate : 192 Kbps
Channel(s) : 2 channels
Channel positions : Front: L R
Sampling rate : 48.0 KHz
Compression mode : Lossy
Stream size : 126 MiB (4%)
Title : Ukr DUB
Language : Ukrainian
Default : Yes
Forced : No

Audio #2
ID : 3
Format : AC-3
Format/Info : Audio Coding 3
Mode extension : CM (complete main)
Format settings, Endianness : Big
Codec ID : A_AC3
Duration : 1h 31mn
Bit rate mode : Constant
Bit rate : 384 Kbps
Channel(s) : 6 channels
Channel positions : Front: L C R, Side: L R, LFE
Sampling rate : 48.0 KHz
Compression mode : Lossy
Stream size : 251 MiB (7%)
Title : Eng 5.1
Language : English
Default : No
Forced : No

Text
ID : 4
Format : UTF-8
Codec ID : S_TEXT/UTF8
Codec ID/Info : UTF-8 Plain Text
Title : Eng
Language : English
Default : No
Forced : No
pb.wtf



Скачать Линия горизонта через торрент https://i114.fastpic.ru/big/2021/0113/2a/911ea04ef4e246097dbdb2264cb9d02a.jpg Скачать фильм Линия горизонта через торрент бесплантно в хорошем качестве Описание: Сара и Джексон собирались полететь на небольшом самолете на свадьбу друга. За штурвалом опытный пилот, и ничто не предвещало ... 5.5 10 4
Торрент: Зарегистрирован [2021-01-13 18:02] · скачан: 29 раз
Статус: √ проверено
Размер: 3.3 GB
Как cкачать? Как скачать Линия горизонта через торрент | UTorrent

28-11-2019 20:33  

Отключить всю рекламу на сайте

    Дорогой пользователь! Огромная просьба, поблагодарите релизера, оцените раздачу и оставьте свои комментарий, если Вы скачали Линия горизонта через торрент бесплатно! Внесите свою лепту в развитие PiratBit!
    Комментировать посты могут только пользователи прошедшие не сложную регистрацию
    Показать сообщения:    

    Линия горизонта через торрент
    Скачать бесплатно Линия горизонта
    Линия горизонта скачать торрент
    Линия горизонта смотреть онлайн
    Cкачать фильм Линия горизонта бесплатно
    Линия горизонта скачать торрент в хорошем качестве
    Линия горизонта смотреть онлайн бесплатно в хорошем качестве


    Вы не можете начинать темы
    Вы не можете отвечать на сообщения
    Вы не можете редактировать свои сообщения
    Вы не можете удалять свои сообщения
    Вы не можете голосовать в опросах
    Вы не можете прикреплять файлы к сообщениям
    Вы можете скачивать файлы