2 сезон

iTunes

WEBRip

1

2 сезон

iTunes

1 сезон

1 сезон

RePack

30

Новинка

ВАЖНО

ИГРА 18+

pack

RePack

MK11
pack

Легкие деньги

RePack

jed

RePack

fifa19

RePack

RDR2

RePack

NEED FOR SPEED™ PAYBACK

4 сезон

9 сезон

Бесстыжие 9 сезон

Все сериалы

все сериалы на PB.wtf

RePack

FAR CRY 5

Anonymous, добрый вечер, мы не успеваем собрать деньги на оплату серверов за февраль, помогите нам пожалуйста в это трудное время. В качестве благодарности мы отключим Вам всю рекламу на сайте (укажите свой ник в строку Ваше имя)!

×
  
Magnet ссылка

Феи: Тайна страны драконов / Bayala: A Magical Adventure (Айна Ярвин, Федерико Милелла) [2019, Мультфильм, фэнтези, приключения, семейный, BD Remux 1080p] DUB (rus, ukr) [IVI] pb.wtf

Феи: Тайна страны драконов через торрент pb.wtf

Качают: 1 [ 0 KB/s ]
Размер: 16.19 GB | Добавлен: 1 мес. 22 д. назад | Торрент скачан:16 раз
Скачать  

17-01-2021 16:31 Феи: Тайна страны драконов Скачать торрент  

Феи: Тайна страны драконов | Bayala: A Magical Adventure
Год выпуска: 2019
Страна: Германия, Люксембург
Выпущено: Ulysses Filmproduktion, Fabrique d'Images, Telepool
Жанр: Мультфильм, фэнтези, приключения, семейный
Продолжительность: 01:24:22
Перевод: Дублированный | IVI
Субтитры: отсутствуют

Режиссер: Айна Ярвин, Федерико Милелла

rating

В ролях: Мэдисон Маллахи, Джессика Уэбб, Оливия Мэннинг, Сара Петерсен, Марк Томпсон, Грегори Макс, Лиза Ортиз, Ребекка Бекер, Кэтрин Кэхилл, Луиз Уайт

Описание: Испокон веков эльфийские племена жили бок о бок с самыми загадочными существами на свете – драконами, в волшебной Стране под названием «Баяла». Между эльфами и драконами существовала особая мистическая связь, ведь эльфы присматривали за драконьими яйцами. Но однажды Офира - королева темных эльфов, украла все драконьи яйца, а вместе с ними похитила и маленькую принцессу солнечных эльфов. Драконы исчезли, Баяла начала терять свою волшебную силу, в то время как Офира стала ещё более могущественной. Найдется ли герой, готовый бросить ей вызов и сумеют ли эльфийские племена объединиться, чтобы вернуть счастье и процветание родному краю?

Качество: BD Remux 1080p
Формат: MKV

Видео: MPEG-4 AVC, 22.9 Mb/s, 1920x1080, 24.000 fps
Аудио #1 Russian: 48 kHz, AC3 Dolby Digital, 3/2 (L, C, R, l, r) + LFE ch, ~384 Kbps | DUB | IVI
Аудио #2 Ukrainian: 48 kHz, AC3 Dolby Digital, 2/0 (L, R) ch, ~192 Kbps | DUB | Новий
Аудио #3 German: 48 kHz, Digital Theater Systems MA, 3/2 (L, C, R, l, r) + LFE ch, ~3993 Kbps | Original
скриншот  скриншот  скриншот  скриншот  

Complete name : Fei.Tayna.stranyi.drakonov.2019.1080p.BDREMUX.ELEKTRI4KA.UNIONGANG.mkv
Format : Matroska
Format version : Version 4 / Version 2
File size : 16.2 GiB
Duration : 1 h 24 min
Overall bit rate mode : Variable
Overall bit rate : 27.5 Mb/s
Movie name : .ELEKTRI4KA.UNIONGANG.
Encoded date : UTC 2021-01-17 15:22:10
Writing application : mkvmerge v8.3.0 ('Over the Horizon') 64bit
Writing library : libebml v1.3.1 + libmatroska v1.4.2

Video
ID : 1
Format : AVC
Format/Info : Advanced Video Codec
Format profile : High@L4.1
Format settings, CABAC : Yes
Format settings, Reference frames : 4 frames
Codec ID : V_MPEG4/ISO/AVC
Duration : 1 h 24 min
Bit rate mode : Variable
Bit rate : 22.9 Mb/s
Maximum bit rate : 36.0 Mb/s
Width : 1 920 pixels
Height : 1 080 pixels
Display aspect ratio : 16:9
Frame rate mode : Constant
Frame rate : 24.000 FPS
Color space : YUV
Chroma subsampling : 4:2:0
Bit depth : 8 bits
Scan type : Progressive
Bits/(Pixel*Frame) : 0.460
Stream size : 13.5 GiB (83%)
Language : German
Default : Yes
Forced : No

Audio #1
ID : 2
Format : AC-3
Format/Info : Audio Coding 3
Mode extension : CM (complete main)
Format settings, Endianness : Big
Codec ID : A_AC3
Duration : 1 h 23 min
Bit rate mode : Constant
Bit rate : 384 kb/s
Channel(s) : 6 channels
Channel positions : Front: L C R, Side: L R, LFE
Sampling rate : 48.0 kHz
Frame rate : 31.250 FPS (1536 spf)
Bit depth : 16 bits
Compression mode : Lossy
Stream size : 231 MiB (1%)
Title : DUB (IVI)
Language : Russian
Default : Yes
Forced : Yes

Audio #2
ID : 3
Format : AC-3
Format/Info : Audio Coding 3
Mode extension : CM (complete main)
Format settings, Endianness : Big
Codec ID : A_AC3
Duration : 1 h 24 min
Bit rate mode : Constant
Bit rate : 192 kb/s
Channel(s) : 2 channels
Channel positions : Front: L R
Sampling rate : 48.0 kHz
Frame rate : 31.250 FPS (1536 spf)
Bit depth : 16 bits
Compression mode : Lossy
Stream size : 116 MiB (1%)
Title : DUB
Language : Ukrainian
Default : No
Forced : No

Audio #3
ID : 4
Format : DTS
Format/Info : Digital Theater Systems
Format profile : MA / Core
Mode : 16
Format settings, Endianness : Big
Codec ID : A_DTS
Duration : 1 h 24 min
Bit rate mode : Variable / Constant
Bit rate : 3 993 kb/s / 1 509 kb/s
Channel(s) : 6 channels
Channel positions : Front: L C R, Side: L R, LFE
Sampling rate : 48.0 kHz
Frame rate : 93.750 FPS (512 spf)
Bit depth : 24 bits
Compression mode : Lossless / Lossy
Stream size : 2.35 GiB (15%)
Title : Original
Language : German
Default : No
Forced : No

Text
ID : 5
Format : PGS
Muxing mode : zlib
Codec ID : S_HDMV/PGS
Codec ID/Info : Picture based subtitle format used on BDs/HD-DVDs
Duration : 1 h 17 min
Bit rate : 10.4 kb/s
Count of elements : 1718
Stream size : 5.77 MiB (0%)
Title : SDH
Language : German
Default : No
Forced : No

Menu
00:00:00.000 : :Chapter 01
00:11:15.083 : :Chapter 02
00:18:34.333 : :Chapter 03
00:29:16.958 : :Chapter 04
00:39:25.958 : :Chapter 05
00:49:15.917 : :Chapter 06
00:58:14.292 : :Chapter 07
01:08:12.625 : :Chapter 08
01:16:26.875 : :Chapter 09

pb.wtf



Скачать Феи: Тайна страны драконов через торрент https://i3.imageban.ru/out/2021/01/17/b69f7525cf4cf0d952692af4ccff0c82.png Скачать фильм Феи: Тайна страны драконов через торрент бесплантно в хорошем качестве Описание: Испокон веков эльфийские племена жили бок о бок с самыми загадочными существами на свете – драконами, в волшебной Стране под ... 10 10 5
Торрент: Зарегистрирован [2021-01-17 16:31] · скачан: 16 раз
Статус: √ проверено
Размер: 16.19 GB
Как cкачать? Как скачать Феи: Тайна страны драконов через торрент | UTorrent

% Раздел Тема Автор DL S | L
Зарубежные Мультфильмы (BDRip 1080p, 720p, Blu-ray, BD-Remux) [ 4.26 GB ] Феи: Тайна страны драконов / Bayala: A Magical Adventure [2019 Мультфильм BDRip 720p] DUB [IVI] bober100 Скачать
5 | 1
Иностранные мультфильмы [ 1.37 GB ] Феи: Тайна страны драконов / Bayala: A Magical Adventure [2019 Мультфильм BDRip] DUB [IVI] bober100 Скачать
9 | 0
Зарубежные Мультфильмы (BDRip 1080p, 720p, Blu-ray, BD-Remux) [ 6.61 GB ] Феи: Тайна страны драконов / Bayala: A Magical Adventure [2019 Мультфильм BDRip 1080p] DUB [IVI] bober100 Скачать
3 | 0

28-11-2019 20:33  

Отключить всю рекламу на сайте

    Дорогой пользователь! Огромная просьба, поблагодарите релизера, оцените раздачу и оставьте свои комментарий, если Вы скачали Феи: Тайна страны драконов через торрент бесплатно! Внесите свою лепту в развитие PiratBit!
    Комментировать посты могут только пользователи прошедшие не сложную регистрацию
    Показать сообщения:    

    Феи: Тайна страны драконов через торрент
    Скачать бесплатно Феи: Тайна страны драконов
    Феи: Тайна страны драконов скачать торрент
    Феи: Тайна страны драконов смотреть онлайн
    Cкачать фильм Феи: Тайна страны драконов бесплатно
    Феи: Тайна страны драконов скачать торрент в хорошем качестве
    Феи: Тайна страны драконов смотреть онлайн бесплатно в хорошем качестве


    Вы не можете начинать темы
    Вы не можете отвечать на сообщения
    Вы не можете редактировать свои сообщения
    Вы не можете удалять свои сообщения
    Вы не можете голосовать в опросах
    Вы не можете прикреплять файлы к сообщениям
    Вы можете скачивать файлы