>

5.6

iTunes

6.1

MVO

5.7

MVO

1

7.4

1 сезон

6.8

iTunes

7.2

1 сезон

13

6.7

1 сезон

8.3

RePack

30

Deluxe

pack

9.9

Лицензия

ВАЖНО

ИГРА 18+

pack

7.3

RePack

MK11

7.7

RePack

jed

7.8

RePack

fifa19

8.5

RePack

RDR2

RePack

NEED FOR SPEED™ PAYBACK

4 сезон

9 сезон

Бесстыжие 9 сезон

Все сериалы

все сериалы на PB.wtf

RePack

FAR CRY 5

Anonymous, доброй ночи, мы катастрофически не успеваем собрать деньги на оплату серверов, помогите нам пожалуйста 5,10,15р., для нас важна любая помощь . В качестве благодарности мы отключим Вам всю рекламу на сайте (укажите свой ник в строку Ваше имя)!

×
  
Magnet ссылка

Сборник фильмов на мобильные устройства pb.wtf

Сборник фильмов на мобильные устройства через торрент pb.wtf

Размер: 41.44 GB | Добавлен: 7 мес. назад | Торрент скачан:2 раза
Смотреть онлайн Сборник фильмов на мобильные устройства | Скачать    Ребята, помогите собрать деньги на оплату серверов!!!

18-01-2021 09:17 Сборник фильмов на мобильные устройства Скачать торрент  

Сборник фильмов на мобильные устройстваРип от: Страна
Релиз от: R.G. Resident

Субтитры: Нет

Качество: HDRip на мобильные устройства
Формат: MP4
Видео кодек: AVC
Аудио кодек: AAC
Видео: 480x200 - 480х360, 23.976 fps, 360 - 640 kbps
Аудио: 2 ch, 48.0 kHz, 128 Kbps
11 друзей Оушена

12 друзей Оушена

12.mp4

13 друзей Оушена

Бобик в гостях у Барбоса

Бременские музыканты

Бременские музыканты 2

Бриллиантовая рука

В осаде

В синем море, в белой пене…

Великая стена

Вирус

Время

Гладиатор

Живая сталь

Жил был пёс

Игры разума

Ип Ман

История рыцаря

Ишь ты, Масленица!

Константин

Кривое зеркало

Крылья ноги и хвосты

Леон

Летучий корабль

Лучшие из лучших

Матрица 1

Матрица 2

Матрица 3

Меняющие реальность

Морской бой

Начало

Обитель зла

Области тьмы

Операция Ы

Остров сокровищ

Остров

Первый скорый

Пес Барбос и необычный кросс

Пираты Карибского моря 1

Пираты Карибского моря 2

Пираты Карибского моря 3

Поездка в Америку

Последний самурай

Поцелуй дракона

Привидение

Путь воина

Раз ковбой, два ковбой...

Самогонщики

Свадьба в Малиновке

Скала

Слушатель

Старые песни о главном

Терминатор 2

Тихоокеанский рубеж

Ух ты, говорящая рыба!

Ученик мастера

Хищник 1

Хищник 2

Хоттабыч

Чужой 1

Чужой 2

Чужой 3

Чужой 4

Ангел Тьмы

В поисках приключений

Ип Ман 2

Ип Ман 3

Кавказская пленница

Кикбоксер

Кулак легенды

Люди в черном

Неслужебное задание

Танго и Кэш

Диверсант 1,2

Небесный суд 1,2
Сёгун

Ип Ман Рождение легенды

Она - мужчина

Терминатор 3

Терминатор 4

Kingsman Секретная служба

Каратэ - пацан

Чужой против Хищника
Общее
Полное имя : E:\КПК\11 друзей Оушена.mp4
Формат : MPEG-4
Профиль формата : Base Media
Идентификатор кодека : isom
Размер файла : 410 Мбайт
Продолжительность : 1 ч. 56 м.
Режим общего битрейта : Переменный
Общий поток : 492 Кбит/сек
Дата кодирования : UTC 2015-06-03 23:52:53
Дата пометки : UTC 2015-06-03 23:52:53

Видео
Идентификатор : 1
Формат : AVC
Формат/Информация : Advanced Video Codec
Профиль формата : High@L2.1
Параметр CABAC формата : Да
Параметр ReFrames формата : 8 кадров
Идентификатор кодека : avc1
Идентификатор кодека/Информация : Advanced Video Coding
Продолжительность : 1 ч. 56 м.
Битрейт : 360 Кбит/сек
Максимальный битрейт : 1996 Кбит/сек
Ширина : 480 пикселей
Высота : 200 пикселей
Соотношение сторон : 2,40:1
Режим частоты кадров : Постоянный
Частота кадров : 23,976 кадра/сек
Цветовое пространство : YUV
Субдискретизация насыщенности : 4:2:0
Битовая глубина : 8 бит
Тип развёртки : Прогрессивная
Бит/(Пиксели*Кадры) : 0.156
Размер потока : 300 Мбайт (73%)
Библиотека кодирования : x264 core 130 r2273 b3065e6
Настройки программы : cabac=1 / ref=8 / deblock=1:-1:-1 / analyse=0x3:0x133 / me=umh / subme=7 / psy=1 / psy_rd=1.00:0.10 / mixed_ref=1 / me_range=16 / chroma_me=1 / trellis=2 / 8x8dct=1 / cqm=0 / deadzone=21,11 / fast_pskip=0 / chroma_qp_offset=-3 / threads=3 / lookahead_threads=1 / sliced_threads=0 / nr=0 / decimate=1 / interlaced=0 / bluray_compat=0 / constrained_intra=0 / bframes=3 / b_pyramid=2 / b_adapt=2 / b_bias=0 / direct=3 / weightb=1 / open_gop=0 / weightp=2 / keyint=250 / keyint_min=23 / scenecut=40 / intra_refresh=0 / rc_lookahead=50 / rc=2pass / mbtree=1 / bitrate=360 / ratetol=1.0 / qcomp=0.60 / qpmin=0 / qpmax=69 / qpstep=4 / cplxblur=20.0 / qblur=0.5 / ip_ratio=1.40 / aq=1:1.00
Дата кодирования : UTC 2015-06-03 23:52:53
Дата пометки : UTC 2015-06-03 23:53:19

Аудио
Идентификатор : 2
Формат : AAC
Формат/Информация : Advanced Audio Codec
Профиль формата : LC
Идентификатор кодека : 40
Продолжительность : 1 ч. 56 м.
Вид битрейта : Переменный
Битрейт : 128 Кбит/сек
Максимальный битрейт : 134 Кбит/сек
Каналы : 2 канала
Расположение каналов : Front: L R
Частота : 48,0 КГц
Метод сжатия : С потерями
Размер потока : 107 Мбайт (26%)
Дата кодирования : UTC 2015-06-03 23:53:14
Дата пометки : UTC 2015-06-03 23:53:19
pb.wtf



Скачать Сборник фильмов на мобильные устройства через торрент http://i69.fastpic.ru/big/2015/0523/5a/025a4d3fb5c39a1f2861ec41be51735a.jpg Скачать, смотреть онлайн Сборник фильмов на мобильные устройства бесплантно в хорошем качестве Сборник фильмов на мобильные устройстваРип от: СтранаРелиз от: R.G. ResidentСубтитры: ... 10 10 2
Info! Золотая раздача, скачанное не засчитывается.
Торрент: Зарегистрирован [2021-02-04 20:02] · скачан: 2 раз
Статус: √ проверено
Размер: 41.44 GB
Как cкачать? Как скачать Сборник фильмов на мобильные устройства через торрент | UTorrent



Последний раз редактировалось: Cтрана (2021-02-04 20:02), всего редактировалось 3 раз(а)

28-11-2019 20:33  

Отключить всю рекламу на сайте

19-01-2021 17:16 Сборник фильмов на мобильные устройства Скачать торрент  

Старые песни о главном..Серьёзно?pb.wtf



23-01-2021 09:21 Сборник фильмов на мобильные устройства Скачать торрент  

Раздача обновленаpb.wtf



23-01-2021 11:51 Сборник фильмов на мобильные устройства Скачать торрент  

10 фильмов 35 гб, бесполезная раздача...pb.wtf



23-01-2021 12:51 Сборник фильмов на мобильные устройства Скачать торрент  

уйло, есть очень скромное предположение, что тут 100 фильмов , а не 10pb.wtf



02-02-2021 14:59 Сборник фильмов на мобильные устройства Скачать торрент  

pb.wtf



04-02-2021 20:05 Сборник фильмов на мобильные устройства Скачать торрент  

Раздача обновлена. Добавленно:
Сёгун
Ип Ман Рождение легенды
Она - мужчина
Терминатор 3
Терминатор 4
Kingsman Секретная служба
Каратэ - пацан
Чужой против Хищникаpb.wtf



04-02-2021 21:50 Сборник фильмов на мобильные устройства Скачать торрент  

уйло писал(а):

бесполезная раздача...

А ты представь окажешься один на необитаемом острове или в бункере, а у тебя флешка на 64g с этими 110-ю фильмами. Ну не круто же, а? Я конечно понимаю, что ты их все за пару месяцев посмотришь, но если по кругу гонять, то года на 3 хватит, а потом, конечно задолбают...pb.wtf



02-09-2021 09:40 Сборник фильмов на мобильные устройства Скачать торрент  

встаньте пожалуйста на раздачу...pb.wtf



    Дорогой пользователь! Огромная просьба, поблагодарите релизера, оцените раздачу и оставьте свои комментарий, если Вы скачали Сборник фильмов на мобильные устройства через торрент бесплатно!
    Комментировать посты могут только пользователи прошедшие не сложную регистрацию
    Показать сообщения:    

    Сборник фильмов на мобильные устройства через торрент
    Скачать бесплатно Сборник фильмов на мобильные устройства
    Сборник фильмов на мобильные устройства скачать торрент
    Сборник фильмов на мобильные устройства смотреть онлайн
    Cкачать фильм Сборник фильмов на мобильные устройства бесплатно
    Сборник фильмов на мобильные устройства скачать торрент в хорошем качестве
    Сборник фильмов на мобильные устройства смотреть онлайн бесплатно в хорошем качестве


    Вы не можете начинать темы
    Вы не можете отвечать на сообщения
    Вы не можете редактировать свои сообщения
    Вы не можете удалять свои сообщения
    Вы не можете голосовать в опросах
    Вы не можете прикреплять файлы к сообщениям
    Вы можете скачивать файлы