2 сезон

iTunes

WEBRip

1

2 сезон

iTunes

1 сезон

1 сезон

RePack

30

Новинка

ВАЖНО

ИГРА 18+

pack

RePack

MK11
pack

Легкие деньги

RePack

jed

RePack

fifa19

RePack

RDR2

RePack

NEED FOR SPEED™ PAYBACK

4 сезон

9 сезон

Бесстыжие 9 сезон

Все сериалы

все сериалы на PB.wtf

RePack

FAR CRY 5

Anonymous, доброе утро, мы не успеваем собрать деньги на оплату серверов за февраль, помогите нам пожалуйста в это трудное время. В качестве благодарности мы отключим Вам всю рекламу на сайте (укажите свой ник в строку Ваше имя)!

×
  
Magnet ссылка

Академия монстров / Escuela de Miedo / Cranston Academy: Monster Zone (Леопольдо Агилар) [2020, Мультфильм, семейный, приключения, BD Remux 1080p] DUB [iTunes] pb.wtf

Академия монстров через торрент pb.wtf

Раздают: 3 [ 0 KB/s ]
Размер: 17.28 GB | Добавлен: 1 мес. 16 д. назад | Торрент скачан:67 раз
Скачать  

18-01-2021 19:46 Академия монстров Скачать торрент  

Академия монстров | Escuela de Miedo | Cranston Academy: Monster Zone
Год выпуска: 2020
Страна: Мексика
Студия: Anima Estudios, ReDefine
Жанр: Мультфильм, семейный, приключения
Продолжительность: 01:25:15
Перевод: Дублированный | iTunes
Субтитры: Английские

Режиссер: Леопольдо Агилар

rating

В ролях: Джейми Белл, Джейссолит, Руби Роуз

Описание: Школьнику Дэнни живется несладко: он не может подружиться с одноклассниками и не находит общего языка с преподавателями. И всему виной его гениальность. Но однажды он попадает в школу для одаренных детей, где случайно открывает портал в мир... монстров.

Качество: BD Remux 1080p
Формат: MKV

Видео: MPEG-4 AVC, 1920x1080, 24.7 Mbit/s, 23.976 fps
Аудио #01: 48 kHz, AC3, 5.1, 384 Kbps | iTunes | RUS |
Аудио #02: 48 kHz, DTS-HD MA, 5.1, 3931 Kbps | Оригинал | SPA |
скриншот  скриншот  скриншот  скриншот  скриншот  

General
Unique ID : 54920693213856580341147966639920594549 (0x2951573C398ACBD8D2A17228FDC73E75)
Complete name : E:VideoFirstCranston.Academy.Monster.Zone.2020.BDREMUX.1080p.seleZen.mkv
Format : Matroska
Format version : Version 4
File size : 17.3 GiB
Duration : 1 h 25 min
Overall bit rate mode : Variable
Overall bit rate : 29.0 Mb/s
Movie name : Cranston Academy Monster Zone 2020 from seleZen
Encoded date : UTC 2021-01-14 02:32:53
Writing application : mkvmerge v40.0.0 ('Old Town Road + Pony') 64-bit
Writing library : libebml v1.3.9 + libmatroska v1.5.2

Video
ID : 1
Format : AVC
Format/Info : Advanced Video Codec
Format profile : High@L4.1
Format settings : CABAC / 4 Ref Frames
Format settings, CABAC : Yes
Format settings, Reference : 4 frames
Codec ID : V_MPEG4/ISO/AVC
Duration : 1 h 25 min
Bit rate mode : Variable
Bit rate : 24.7 Mb/s
Maximum bit rate : 30.0 Mb/s
Width : 1 920 pixels
Height : 1 080 pixels
Display aspect ratio : 16:9
Frame rate mode : Constant
Frame rate : 23.976 (24000/1001) FPS
Color space : YUV
Chroma subsampling : 4:2:0
Bit depth : 8 bits
Scan type : Progressive
Bits/(Pixel*Frame) : 0.497
Stream size : 14.7 GiB (85%)
Language : English
Default : Yes
Forced : No
Color range : Limited
Color primaries : BT.709
Transfer characteristics : BT.709
Matrix coefficients : BT.709

Audio #1
ID : 2
Format : AC-3
Format/Info : Audio Coding 3
Commercial name : Dolby Digital
Codec ID : A_AC3
Duration : 1 h 25 min
Bit rate mode : Constant
Bit rate : 384 kb/s
Channel(s) : 6 channels
Channel layout : L R C LFE Ls Rs
Sampling rate : 48.0 kHz
Frame rate : 31.250 FPS (1536 SPF)
Compression mode : Lossy
Stream size : 234 MiB (1%)
Title : iTunes
Language : Russian
Service kind : Complete Main
Default : Yes
Forced : Yes

Audio #2
ID : 3
Format : DTS XLL
Format/Info : Digital Theater Systems
Commercial name : DTS-HD Master Audio
Codec ID : A_DTS
Duration : 1 h 25 min
Bit rate mode : Variable
Bit rate : 3 931 kb/s
Channel(s) : 6 channels
Channel layout : C L R Ls Rs LFE
Sampling rate : 48.0 kHz
Frame rate : 93.750 FPS (512 SPF)
Bit depth : 24 bits
Compression mode : Lossless
Stream size : 2.34 GiB (14%)
Title : Original
Language : Spanish
Default : No
Forced : No

Text
ID : 4
Format : UTF-8
Codec ID : S_TEXT/UTF8
Codec ID/Info : UTF-8 Plain Text
Duration : 1 h 17 min
Bit rate : 55 b/s
Count of elements : 1124
Stream size : 31.4 KiB (0%)
Title : Full
Language : English
Default : No
Forced : No

Menu
00:00:00.000 : es:Глава 01
00:08:15.662 : es:Глава 02
00:15:26.926 : es:Глава 03
00:21:39.840 : es:Глава 04
00:30:10.267 : es:Глава 05
00:39:03.633 : es:Глава 06
00:45:45.076 : es:Глава 07
00:51:32.381 : es:Глава 08
00:57:48.632 : es:Глава 09
01:02:32.749 : es:Глава 10
01:08:46.497 : es:Глава 11
01:16:16.197 : es:Глава 12

pb.wtf



Скачать Академия монстров через торрент https://i114.fastpic.ru/big/2021/0118/1a/2e7dec4466bb1304c0d11737b429d81a.jpg Скачать фильм Академия монстров через торрент бесплантно в хорошем качестве Описание: Школьнику Дэнни живется несладко: он не может подружиться с одноклассниками и не находит общего языка с преподавателями. И всему ... 10 10 6
Торрент: Зарегистрирован [2021-01-18 19:46] · скачан: 67 раз
Статус: √ проверено
Размер: 17.28 GB
Как cкачать? Как скачать Академия монстров через торрент | UTorrent

% Раздел Тема Автор DL S | L
Зарубежные Мультфильмы (BDRip 1080p, 720p, Blu-ray, BD-Remux) [ 5.85 GB ] Академия монстров / Escuela de Miedo / Cranston Academy: Monster Zone [2020 Мультфильм BDRip 1080p] bober100 Скачать
10 | 0
Зарубежные Мультфильмы (BDRip 1080p, 720p, Blu-ray, BD-Remux) [ 3.41 GB ] Академия монстров / Escuela de Miedo / Cranston Academy: Monster Zone [2020 Мультфильм BDRip 720p] bober100 Скачать
7 | 0
Иностранные мультфильмы [ 2.05 GB ] Академия монстров / Escuela de Miedo / Cranston Academy: Monster Zone! [2020 Мультфильм полнометражный HDRip-AVC] от MediaBit Lithuania Скачать
5 | 0
Иностранные мультфильмы [ 1.42 GB ] Академия монстров / Escuela de Miedo / Cranston Academy: Monster Zone [2020 Мультфильм полнометражный BDRip] - Twi7ter Скачать
23 | 0

28-11-2019 20:33  

Отключить всю рекламу на сайте

    Дорогой пользователь! Огромная просьба, поблагодарите релизера, оцените раздачу и оставьте свои комментарий, если Вы скачали Академия монстров через торрент бесплатно! Внесите свою лепту в развитие PiratBit!
    Комментировать посты могут только пользователи прошедшие не сложную регистрацию
    Показать сообщения:    

    Академия монстров через торрент
    Скачать бесплатно Академия монстров
    Академия монстров скачать торрент
    Академия монстров смотреть онлайн
    Cкачать фильм Академия монстров бесплатно
    Академия монстров скачать торрент в хорошем качестве
    Академия монстров смотреть онлайн бесплатно в хорошем качестве


    Вы не можете начинать темы
    Вы не можете отвечать на сообщения
    Вы не можете редактировать свои сообщения
    Вы не можете удалять свои сообщения
    Вы не можете голосовать в опросах
    Вы не можете прикреплять файлы к сообщениям
    Вы можете скачивать файлы