2 сезон

iTunes

WEBRip

1

2 сезон

iTunes

1 сезон

1 сезон

RePack

30

Новинка

ВАЖНО

ИГРА 18+

pack

RePack

MK11
pack

Легкие деньги

RePack

jed

RePack

fifa19

RePack

RDR2

RePack

NEED FOR SPEED™ PAYBACK

4 сезон

9 сезон

Бесстыжие 9 сезон

Все сериалы

все сериалы на PB.wtf

RePack

FAR CRY 5

Anonymous, доброй ночи, мы не успеваем собрать деньги на оплату серверов за февраль, помогите нам пожалуйста в это трудное время. В качестве благодарности мы отключим Вам всю рекламу на сайте (укажите свой ник в строку Ваше имя)!

×
  
Magnet ссылка

Академия монстров / Escuela de Miedo / Cranston Academy: Monster Zone (Леопольдо Агилар) [2020, Мультфильм, семейный, приключения, BDRip 720p] DUB [iTunes] pb.wtf

Академия монстров через торрент pb.wtf

Раздают: 5 [ 9 KB/s ]
Размер: 3.41 GB | Добавлен: 1 мес. 14 д. назад | Торрент скачан:118 раз
Скачать  

20-01-2021 10:24 Академия монстров Скачать торрент  

Академия монстров | Escuela de Miedo | Cranston Academy: Monster Zone
Год выпуска: 2020
Страна: Мексика
Студия: Anima Estudios, ReDefine
Жанр: Мультфильм, семейный, приключения
Продолжительность: 01:25:08
Перевод: Дублированный | iTunes
Субтитры: Английские

Режиссер: Леопольдо Агилар

rating

В ролях: Джейми Белл, Джейссолит, Руби Роуз

Описание: Школьнику Дэнни живется несладко: он не может подружиться с одноклассниками и не находит общего языка с преподавателями. И всему виной его гениальность. Но однажды он попадает в школу для одаренных детей, где случайно открывает портал в мир... монстров.

Качество: BDRip 720p
Формат: MKV

Видео: MPEG-4 AVC, 1280x552, 4703 Kbit/s, 23.976 fps
Аудио #01: 48 kHz, AC3, 5.1, 384 Kbps | iTunes | RUS |
Аудио #02: 48 kHz, AC3, 5.1, 640 Kbps | Оригинал | SPA |
скриншот  скриншот  скриншот  скриншот  скриншот  

General
Unique ID : 54739797125886856341970459651648969817 (0x292E805E98F38DB8ACD618877296DC59)
Complete name : E:VideoFirstCranston.Academy.Monster.Zone.2020.BDRip.720p.seleZen.mkv
Format : Matroska
Format version : Version 4
File size : 3.41 GiB
Duration : 1 h 25 min
Overall bit rate : 5 729 kb/s
Movie name : Cranston Academy Monster Zone 2020 from seleZen
Encoded date : UTC 2021-01-14 01:42:37
Writing application : mkvmerge v40.0.0 ('Old Town Road + Pony') 64-bit
Writing library : libebml v1.3.9 + libmatroska v1.5.2

Video
ID : 1
Format : AVC
Format/Info : Advanced Video Codec
Format profile : High@L4.1
Format settings : CABAC / 11 Ref Frames
Format settings, CABAC : Yes
Format settings, Reference : 11 frames
Codec ID : V_MPEG4/ISO/AVC
Duration : 1 h 25 min
Bit rate : 4 703 kb/s
Width : 1 280 pixels
Height : 552 pixels
Display aspect ratio : 2.35:1
Frame rate mode : Constant
Frame rate : 23.976 (24000/1001) FPS
Color space : YUV
Chroma subsampling : 4:2:0
Bit depth : 8 bits
Scan type : Progressive
Bits/(Pixel*Frame) : 0.278
Stream size : 2.80 GiB (82%)
Title : iFT
Writing library : x264 core 161 r3018+53 ~ Encoded by Mocunaman in Portugal
Encoding settings : cabac=1 / ref=11 / deblock=1:-3:-3 / analyse=0x3:0x113 / me=umh / subme=11 / psy=1 / fade_compensate=0.00 / psy_rd=0.80:0.00 / mixed_ref=1 / me_range=32 / chroma_me=1 / trellis=2 / 8x8dct=1 / cqm=0 / deadzone=21,11 / fast_pskip=0 / chroma_qp_offset=-2 / threads=17 / lookahead_threads=2 / sliced_threads=0 / nr=0 / decimate=0 / interlaced=0 / bluray_compat=0 / constrained_intra=0 / fgo=0 / bframes=8 / b_pyramid=2 / b_adapt=2 / b_bias=0 / direct=3 / weightb=1 / open_gop=0 / weightp=2 / keyint=250 / keyint_min=23 / scenecut=40 / intra_refresh=0 / rc_lookahead=60 / rc=crf / mbtree=0 / crf=15.5000 / qcomp=0.60 / qpmin=0:0:0 / qpmax=69:69:69 / qpstep=4 / vbv_maxrate=62500 / vbv_bufsize=78125 / crf_max=0.0 / nal_hrd=none / filler=0 / ip_ratio=1.30 / pb_ratio=1.20 / aq=3:0.90 / aq-sensitivity=10.00 / aq-factor=1.00:1.00:1.00 / aq2=0 / aq3=0
Language : English
Default : Yes
Forced : No
Color range : Limited
Color primaries : BT.709
Transfer characteristics : BT.709
Matrix coefficients : BT.709

Audio #1
ID : 2
Format : AC-3
Format/Info : Audio Coding 3
Commercial name : Dolby Digital
Codec ID : A_AC3
Duration : 1 h 25 min
Bit rate mode : Constant
Bit rate : 384 kb/s
Channel(s) : 6 channels
Channel layout : L R C LFE Ls Rs
Sampling rate : 48.0 kHz
Frame rate : 31.250 FPS (1536 SPF)
Compression mode : Lossy
Stream size : 234 MiB (7%)
Title : iTunes
Language : Russian
Service kind : Complete Main
Default : Yes
Forced : Yes

Audio #2
ID : 3
Format : AC-3
Format/Info : Audio Coding 3
Commercial name : Dolby Digital
Codec ID : A_AC3
Duration : 1 h 25 min
Bit rate mode : Constant
Bit rate : 640 kb/s
Channel(s) : 6 channels
Channel layout : L R C LFE Ls Rs
Sampling rate : 48.0 kHz
Frame rate : 31.250 FPS (1536 SPF)
Compression mode : Lossy
Stream size : 390 MiB (11%)
Title : Original
Language : English
Service kind : Complete Main
Default : No
Forced : No

Text
ID : 4
Format : UTF-8
Codec ID : S_TEXT/UTF8
Codec ID/Info : UTF-8 Plain Text
Duration : 1 h 17 min
Bit rate : 55 b/s
Count of elements : 1124
Stream size : 31.4 KiB (0%)
Title : Full
Language : English
Default : No
Forced : No

Menu
00:00:00.000 : en:Kapitel 01
00:08:09.113 : en:Kapitel 02
00:15:20.377 : en:Kapitel 03
00:21:33.208 : en:Kapitel 04
00:30:08.348 : en:Kapitel 05
00:38:57.043 : en:Kapitel 06
00:44:04.016 : en:Kapitel 07
00:49:49.861 : en:Kapitel 08
00:55:30.660 : en:Kapitel 09
01:01:16.297 : en:Kapitel 10
01:09:28.831 : en:Kapitel 11
01:18:43.552 : en:Kapitel 12

pb.wtf



Скачать Академия монстров через торрент https://i114.fastpic.ru/big/2021/0118/1a/2e7dec4466bb1304c0d11737b429d81a.jpg Скачать фильм Академия монстров через торрент бесплантно в хорошем качестве Описание: Школьнику Дэнни живется несладко: он не может подружиться с одноклассниками и не находит общего языка с преподавателями. И всему ... 10 10 4
Торрент: Зарегистрирован [2021-01-20 10:24] · скачан: 118 раз
Статус: √ проверено
Размер: 3.41 GB
Как cкачать? Как скачать Академия монстров через торрент | UTorrent

% Раздел Тема Автор DL S | L
Зарубежные Мультфильмы (BDRip 1080p, 720p, Blu-ray, BD-Remux) [ 5.85 GB ] Академия монстров / Escuela de Miedo / Cranston Academy: Monster Zone [2020 Мультфильм BDRip 1080p] bober100 Скачать
6 | 0
Зарубежные Мультфильмы (BDRip 1080p, 720p, Blu-ray, BD-Remux) [ 17.28 GB ] Академия монстров / Escuela de Miedo / Cranston Academy: Monster Zone [2020 Мультфильм BD Remux 1080p] bober100 Скачать
4 | 0
Иностранные мультфильмы [ 2.05 GB ] Академия монстров / Escuela de Miedo / Cranston Academy: Monster Zone! [2020 Мультфильм полнометражный HDRip-AVC] от MediaBit Lithuania Скачать
3 | 0
Иностранные мультфильмы [ 1.42 GB ] Академия монстров / Escuela de Miedo / Cranston Academy: Monster Zone [2020 Мультфильм полнометражный BDRip] - Twi7ter Скачать
16 | 0

28-11-2019 20:33  

Отключить всю рекламу на сайте

    Дорогой пользователь! Огромная просьба, поблагодарите релизера, оцените раздачу и оставьте свои комментарий, если Вы скачали Академия монстров через торрент бесплатно! Внесите свою лепту в развитие PiratBit!
    Комментировать посты могут только пользователи прошедшие не сложную регистрацию
    Показать сообщения:    

    Академия монстров через торрент
    Скачать бесплатно Академия монстров
    Академия монстров скачать торрент
    Академия монстров смотреть онлайн
    Cкачать фильм Академия монстров бесплатно
    Академия монстров скачать торрент в хорошем качестве
    Академия монстров смотреть онлайн бесплатно в хорошем качестве


    Вы не можете начинать темы
    Вы не можете отвечать на сообщения
    Вы не можете редактировать свои сообщения
    Вы не можете удалять свои сообщения
    Вы не можете голосовать в опросах
    Вы не можете прикреплять файлы к сообщениям
    Вы можете скачивать файлы