Anonymous, доброй ночи, присоединяйтесь к нам в Telegram!, здесь всегда актуальный адрес сайта, оперативная поддержка и многое другое!

>

5.5

iTunes

7.4

iTunes

7.9

iTunes

1

7.7

1 сезон

6.8

iTunes

7.3

1 сезон

13

6.7

1 сезон

8.3

RePack

30

ULTIMATE

pack

9.9

Лицензия

ВАЖНО

ИГРА 18+

pack

7.3

RePack

MK11

7.7

RePack

jed

7.8

RePack

fifa19

8.5

RePack

RDR2

RePack

NEED FOR SPEED™ PAYBACK

4 сезон

9 сезон

Бесстыжие 9 сезон

Все сериалы

все сериалы на PB.wtf

RePack

FAR CRY 5

Anonymous, доброй ночи, мы катастрофически не успеваем собрать деньги на оплату серверов, помогите нам пожалуйста 5,10,15р., для нас важна любая помощь . В качестве благодарности мы отключим Вам всю рекламу на сайте (укажите свой ник в строку Ваше имя)!

×
  
Magnet ссылка

Тихоокеанский рубеж: Дилогия / Pacific Rim: Dilogy [2013-2018, фантастика, фэнтези, боевик, приключения, BDRip - HEVC 1080p 10 bit 60 FPS, DUB] pb.wtf

Тихоокеанский рубеж: Дилогия через торрент pb.wtf

Раздают: 3 [ 0 KB/s ]
Размер: 8.32 GB | Добавлен: 9 мес. назад | Торрент скачан:65 раз
Смотреть онлайн Тихоокеанский рубеж: Дилогия | Скачать    Ребята, помогите собрать деньги на оплату серверов!!!

20-01-2021 19:22 Тихоокеанский рубеж: Дилогия Скачать торрент  



«Тихоокеанский рубеж» (англ. Pacific Rim) — франшиза, состоящая из двух фильмов от студии Legendary Pictures, придуманной и созданной Гильермо Дель Торо. Франшиза рассказывает о противостоянии человечества с гигантскими чудовищами кайдзю, прибывшими из параллельной вселенной, чтобы уничтожить их мир.

Pacific Rim«Чтобы сражаться с монстрами, мы создали монстров»

Год выпуска: 2013
Страна: США
Жанр: фантастика, приключения, боевик, меха

Продолжительность: 02:11:17
Перевод: Дубляж
Субтитры: русские

Режиссер: Гильермо дель Торо

В ролях: Чарли Ханнэм, Идрис Эльба, Ринко Кикути, Чарли Дэй, Роберт Казински, Макс Мартини, Рон Перлман

Описание:
Когда из морских глубин поднялись легионы чудовищ, известных как кайдзю, началась война, которой суждено было забрать миллионы жизней и свести «человеческие ресурсы» почти к нулю всего за несколько лет. Чтобы сражаться с пришельцами, было создано специальное оружие: огромные роботы, названные егерями, они управлялись одновременно двумя пилотами, чьи сознания соединены с помощью нейронной связи. Но даже егеря оказываются почти бессильны перед лицом безжалостных кайдзю. На грани поражения у защитников человечества нет выбора, кроме как обратиться к двум весьма сомнительным героям – никому не нужному бывшему пилоту и неопытному стажеру – которые объединились, чтобы повести в бой некогда легендарного, но сейчас устаревшего егеря. Вместе они оказываются единственной надеждой человечества, последним препятствием перед надвигающимся апокалипсисом.

Мировая премьера: 1 июля 2013


Качество: BDRip 1080p by DD2D3
Формат: MKV
Видео кодек: V_MPEGH/ISO/HEVC
Аудио кодек: AC3
Видео: V_MPEGH/ISO/HEVC; 1920x1080 (16:9); 4503 Kbps; 59,940 fps; 0,036 bpp
Аудио: русский; AC3; 640 Kbps; CBR; 6 ch
Навигация по главам: есть



General
Unique ID : 250102782557382882923191681457434669985 (0xBC280B3724E8A895820397012B3833A1)
Complete name : D:\Pacific Rim Dilogy (2013-2018) BDRip - HEVC 1080p 10 bit 60 FPS\Pacific Rim (2013) BDRip - HEVC 1080p 10 bit 60 FPS.mkv
Format : Matroska
Format version : Version 4
File size : 4.72 GiB
Duration : 2 h 11 min
Overall bit rate : 5 149 kb/s
Movie name : Rip by from DD2D3
Encoded date : UTC 2021-01-19 17:58:07
Writing application : mkvmerge v10.0.0 ('To Drown In You') 32bit
Writing library : libebml v1.3.4 + libmatroska v1.4.5
Attachments : poster

Video
ID : 1
Format : HEVC
Format/Info : High Efficiency Video Coding
Format profile : Main 10@L4.1@Main
Codec ID : V_MPEGH/ISO/HEVC
Duration : 2 h 11 min
Bit rate : 4 503 kb/s
Width : 1 920 pixels
Height : 1 080 pixels
Display aspect ratio : 16:9
Frame rate mode : Constant
Frame rate : 59.940 (60000/1001) FPS
Color space : YUV
Chroma subsampling : 4:2:0
Bit depth : 10 bits
Bits/(Pixel*Frame) : 0.036
Stream size : 4.13 GiB (87%)
Writing library : x265 2.3+33-0b7d54dbb71a87a0:[Windows][MSVC 1800][64 bit] 10bit: KG7x [x265.ru]
Encoding settings : cpuid=1173503 / frame-threads=2 / numa-pools=4 / wpp / no-pmode / no-pme / no-psnr / no-ssim / log-level=2 / input-csp=1 / input-res=1920x1080 / interlace=0 / total-frames=472138 / level-idc=41 / high-tier=1 / uhd-bd=0 / ref=3 / no-allow-non-conformance / no-repeat-headers / annexb / no-aud / no-hrd / info / hash=0 / no-temporal-layers / open-gop / min-keyint=25 / keyint=250 / bframes=4 / b-adapt=2 / b-pyramid / bframe-bias=0 / rc-lookahead=20 / lookahead-slices=6 / scenecut=40 / no-intra-refresh / ctu=64 / min-cu-size=8 / no-rect / no-amp / max-tu-size=32 / tu-inter-depth=1 / tu-intra-depth=1 / limit-tu=0 / rdoq-level=0 / dynamic-rd=0.00 / no-ssim-rd / signhide / no-tskip / nr-intra=0 / nr-inter=0 / no-constrained-intra / strong-intra-smoothing / max-merge=2 / limit-refs=3 / no-limit-modes / me=1 / subme=2 / merange=57 / temporal-mvp / weightp / no-weightb / no-analyze-src-pics / deblock=0:0 / sao / no-sao-non-deblock / rd=3 / no-early-skip / rskip / no-fast-intra / no-tskip-fast / no-cu-lossless / no-b-intra / rdpenalty=0 / psy-rd=2.00 / psy-rdoq=0.00 / no-rd-refine / analysis-mode=0 / no-lossless / cbqpoffs=0 / crqpoffs=0 / rc=abr / bitrate=4500 / qcomp=0.60 / qpstep=4 / stats-write=0 / stats-read=2 / cplxblur=20.0 / qblur=0.5 / ipratio=1.40 / pbratio=1.30 / aq-mode=1 / aq-strength=1.00 / cutree / zone-count=0 / no-strict-cbr / qg-size=32 / no-rc-grain / qpmax=69 / qpmin=0 / sar=1 / overscan=0 / videoformat=5 / range=0 / colorprim=2 / transfer=2 / colormatrix=2 / chromaloc=0 / display-window=0 / max-cll=0,0 / min-luma=0 / max-luma=1023 / log2-max-poc-lsb=8 / vui-timing-info / vui-hrd-info / slices=1 / opt-qp-pps / opt-ref-list-length-pps / no-multi-pass-opt-rps / scenecut-bias=0.05 / no-opt-cu-delta-qp / no-aq-motion / no-hdr / no-hdr-opt / refine-level=5 / no-limit-sao
Default : Yes
Forced : No

Audio
ID : 2
Format : AC-3
Format/Info : Audio Coding 3
Commercial name : Dolby Digital
Codec ID : A_AC3
Duration : 2 h 11 min
Bit rate mode : Constant
Bit rate : 640 kb/s
Channel(s) : 6 channels
Channel layout : L R C LFE Ls Rs
Sampling rate : 48.0 kHz
Frame rate : 31.250 FPS (1536 SPF)
Compression mode : Lossy
Stream size : 601 MiB (12%)
Title : Дубляж [Blu-ray CEE]
Language : Russian
Service kind : Complete Main
Default : Yes
Forced : No

Text
ID : 3
Format : UTF-8
Codec ID : S_TEXT/UTF8
Codec ID/Info : UTF-8 Plain Text
Duration : 2 h 10 min
Bit rate : 67 b/s
Count of elements : 1650
Stream size : 64.7 KiB (0%)
Title : iTunes
Language : Russian
Default : No
Forced : No

Menu
00:00:00.000 : en:00:00:00.000
00:09:09.132 : en:00:09:09.132
00:18:35.823 : en:00:18:35.823
00:23:04.341 : en:00:23:04.341
00:33:00.395 : en:00:33:00.395
00:42:44.896 : en:00:42:44.896
00:50:01.665 : en:00:50:01.665
01:01:09.666 : en:01:01:09.666
01:14:45.106 : en:01:14:45.106
01:22:21.311 : en:01:22:21.311
01:32:09.941 : en:01:32:09.941
01:41:55.609 : en:01:41:55.609
01:51:37.858 : en:01:51:37.858
01:59:21.029 : en:01:59:21.029
02:02:17.830 : en:02:02:17.830


скриншот   скриншот   скриншот   скриншот  




Pacific Rim: Uprising «Rise up»

Год выпуска: 2018
Страна: Великобритания, Китай, Япония, США
Жанр: фантастика, боевик, приключения

Продолжительность: 01:50:42
Перевод: Дубляж
Субтитры: русские

Режиссер: Стивен С. ДеНайт

В ролях: Джон Бойега, Скотт Иствуд, Кэйли Спэни, Берн Горман, Чарли Дэй, Цзин Тянь, Макс Чжан, Адриа Архона, Ринко Кикути, Каран Брэр.

Описание:
Команда пилотируемых роботов-защитников остановила вторжение гигантских инопланетных монстров. Великая битва за Тихоокеанский рубеж ознаменовала новую главу в истории человечества. Однако война только начинается… Пришло время нового поколения отстаивать своё право на Землю.

Мировая премьера: 23 июля 2018


Качество: BВRip 1080p by DD2D3
Формат: MKV
Видео кодек: V_MPEGH/ISO/HEVC
Аудио кодек: AC3
Видео: V_MPEGH/ISO/HEVC; 1920x800 (2.40:1); 4001 Kbps; 59,940 fps; 0,043 bpp
Аудио: русский; AC3; 640 Kbps; CBR; 6 ch
Навигация по главам: есть



General
Unique ID : 209132445860651274614403847117710960967 (0x9D5571A8D7EE6B1795703BC926D22947)
Complete name : D:\Pacific Rim Dilogy (2013-2018) BDRip - HEVC 1080p 10 bit 60 FPS\Pacific Rim Uprising (2018) BDRip - HEVC 1080p 10 bit 60 FPS.mkv
Format : Matroska
Format version : Version 4
File size : 3.59 GiB
Duration : 1 h 50 min
Overall bit rate : 4 648 kb/s
Movie name : Rip by from DD2D3
Encoded date : UTC 2021-01-20 17:58:39
Writing application : mkvmerge v10.0.0 ('To Drown In You') 32bit
Writing library : libebml v1.3.4 + libmatroska v1.4.5
Attachments : poster

Video
ID : 1
Format : HEVC
Format/Info : High Efficiency Video Coding
Format profile : Main 10@L4.1@Main
Codec ID : V_MPEGH/ISO/HEVC
Duration : 1 h 50 min
Bit rate : 4 001 kb/s
Width : 1 920 pixels
Height : 800 pixels
Display aspect ratio : 2.40:1
Frame rate mode : Constant
Frame rate : 59.940 (60000/1001) FPS
Color space : YUV
Chroma subsampling : 4:2:0
Bit depth : 10 bits
Bits/(Pixel*Frame) : 0.043
Stream size : 3.09 GiB (86%)
Writing library : x265 2.3+33-0b7d54dbb71a87a0:[Windows][MSVC 1800][64 bit] 10bit: KG7x [x265.ru]
Encoding settings : cpuid=1173503 / frame-threads=2 / numa-pools=4 / wpp / no-pmode / no-pme / no-psnr / no-ssim / log-level=2 / input-csp=1 / input-res=1920x800 / interlace=0 / total-frames=398128 / level-idc=41 / high-tier=1 / uhd-bd=0 / ref=3 / no-allow-non-conformance / no-repeat-headers / annexb / no-aud / no-hrd / info / hash=0 / no-temporal-layers / open-gop / min-keyint=25 / keyint=250 / bframes=4 / b-adapt=2 / b-pyramid / bframe-bias=0 / rc-lookahead=20 / lookahead-slices=5 / scenecut=40 / no-intra-refresh / ctu=64 / min-cu-size=8 / no-rect / no-amp / max-tu-size=32 / tu-inter-depth=1 / tu-intra-depth=1 / limit-tu=0 / rdoq-level=0 / dynamic-rd=0.00 / no-ssim-rd / signhide / no-tskip / nr-intra=0 / nr-inter=0 / no-constrained-intra / strong-intra-smoothing / max-merge=2 / limit-refs=3 / no-limit-modes / me=1 / subme=2 / merange=57 / temporal-mvp / weightp / no-weightb / no-analyze-src-pics / deblock=0:0 / sao / no-sao-non-deblock / rd=3 / no-early-skip / rskip / no-fast-intra / no-tskip-fast / no-cu-lossless / no-b-intra / rdpenalty=0 / psy-rd=2.00 / psy-rdoq=0.00 / no-rd-refine / analysis-mode=0 / no-lossless / cbqpoffs=0 / crqpoffs=0 / rc=abr / bitrate=4000 / qcomp=0.60 / qpstep=4 / stats-write=0 / stats-read=2 / cplxblur=20.0 / qblur=0.5 / ipratio=1.40 / pbratio=1.30 / aq-mode=1 / aq-strength=1.00 / cutree / zone-count=0 / no-strict-cbr / qg-size=32 / no-rc-grain / qpmax=69 / qpmin=0 / sar=1 / overscan=0 / videoformat=5 / range=0 / colorprim=2 / transfer=2 / colormatrix=2 / chromaloc=0 / display-window=0 / max-cll=0,0 / min-luma=0 / max-luma=1023 / log2-max-poc-lsb=8 / vui-timing-info / vui-hrd-info / slices=1 / opt-qp-pps / opt-ref-list-length-pps / no-multi-pass-opt-rps / scenecut-bias=0.05 / no-opt-cu-delta-qp / no-aq-motion / no-hdr / no-hdr-opt / refine-level=5 / no-limit-sao
Default : Yes
Forced : No

Audio
ID : 2
Format : AC-3
Format/Info : Audio Coding 3
Commercial name : Dolby Digital
Codec ID : A_AC3
Duration : 1 h 50 min
Bit rate mode : Constant
Bit rate : 640 kb/s
Channel(s) : 6 channels
Channel layout : L R C LFE Ls Rs
Sampling rate : 48.0 kHz
Frame rate : 31.250 FPS (1536 SPF)
Compression mode : Lossy
Stream size : 507 MiB (14%)
Title : | Дублированный |
Language : Russian
Service kind : Complete Main
Default : Yes
Forced : No

Text
ID : 3
Format : UTF-8
Codec ID : S_TEXT/UTF8
Codec ID/Info : UTF-8 Plain Text
Duration : 1 h 40 min
Bit rate : 104 b/s
Count of elements : 1191
Stream size : 76.6 KiB (0%)
Title : Full
Language : Russian
Default : No
Forced : No

Menu
00:00:00.000 : en:Chapter 1
00:06:55.289 : en:Chapter 2
00:13:06.160 : en:Chapter 3
00:15:52.034 : en:Chapter 4
00:20:37.611 : en:Chapter 5
00:24:51.198 : en:Chapter 6
00:31:10.118 : en:Chapter 7
00:37:58.359 : en:Chapter 8
00:43:40.576 : en:Chapter 9
00:49:04.691 : en:Chapter 10
00:53:44.137 : en:Chapter 11
00:58:15.533 : en:Chapter 12
01:04:48.885 : en:Chapter 13
01:09:29.707 : en:Chapter 14
01:14:41.185 : en:Chapter 15
01:22:58.390 : en:Chapter 16
01:29:07.884 : en:Chapter 17
01:33:16.173 : en:Chapter 18
01:38:13.262 : en:Chapter 19
01:41:01.096 : en:Chapter 20


скриншот   скриншот   скриншот   скриншот  




pb.wtf



Скачать Тихоокеанский рубеж: Дилогия через торрент https://funkyimg.com/i/3aczD.jpeg Скачать, смотреть онлайн Тихоокеанский рубеж: Дилогия бесплантно в хорошем качестве Описание: Когда из морских глубин поднялись легионы чудовищ, известных как кайдзю, началась война, которой суждено было забрать миллионы ... 9.7 10 9
Info! Золотая раздача, скачанное не засчитывается.
Торрент: Зарегистрирован [2021-01-20 19:22] · скачан: 65 раз
Статус: √ проверено
Размер: 8.32 GB
Как cкачать? Как скачать Тихоокеанский рубеж: Дилогия через торрент | UTorrent

% Раздел Тема Автор DL S | L
Сборники (HD Video) [ 15.54 GB ] Тихоокеанский рубеж: Дилогия / Pacific Rim: Dilogy [2013-2018 BDRip-HEVC 1080p ] DUB [] bober100 Скачать
1 | 0

28-11-2019 20:33  

Отключить всю рекламу на сайте

27-01-2021 00:16 Тихоокеанский рубеж: Дилогия Скачать торрент  

Спасибо!!!
pb.wtf



    Дорогой пользователь! Огромная просьба, поблагодарите релизера, оцените раздачу и оставьте свои комментарий, если Вы скачали Тихоокеанский рубеж: Дилогия через торрент бесплатно!
    Комментировать посты могут только пользователи прошедшие не сложную регистрацию
    Показать сообщения:    

    Тихоокеанский рубеж: Дилогия через торрент
    Скачать бесплатно Тихоокеанский рубеж: Дилогия
    Тихоокеанский рубеж: Дилогия скачать торрент
    Тихоокеанский рубеж: Дилогия смотреть онлайн
    Cкачать фильм Тихоокеанский рубеж: Дилогия бесплатно
    Тихоокеанский рубеж: Дилогия скачать торрент в хорошем качестве
    Тихоокеанский рубеж: Дилогия смотреть онлайн бесплатно в хорошем качестве


    Вы не можете начинать темы
    Вы не можете отвечать на сообщения
    Вы не можете редактировать свои сообщения
    Вы не можете удалять свои сообщения
    Вы не можете голосовать в опросах
    Вы не можете прикреплять файлы к сообщениям
    Вы можете скачивать файлы