1 сезон

1 сезон

iTunes

1

iTunes

Кинопоиск HD

iTunes

13

1 сезон

RePack

30

Deluxe

ВАЖНО

ИГРА 18+

pack

RePack

MK11
pack

Легкие деньги

RePack

jed

RePack

fifa19

RePack

RDR2

RePack

NEED FOR SPEED™ PAYBACK

4 сезон

9 сезон

Бесстыжие 9 сезон

Все сериалы

все сериалы на PB.wtf

RePack

FAR CRY 5
  
Magnet ссылка

257 причин, чтобы жить / Сезон: 2 / Серии: 1-13 из 13 (Максим Свешников) [2020, Драма, комедия, WEBRip 2160p, (Версия 18+)] pb.wtf

257 причин, чтобы жить через торрент pb.wtf

Качают: 1 [ 0 KB/s ]
Размер: 61.24 GB | Добавлен: 3 мес. 23 д. назад | Торрент скачан:13 раз
Скачать  

21-01-2021 15:51 257 причин, чтобы жить Скачать торрент  

257 причин, чтобы жить - 2
Год выпуска: 2020
Страна: Россия
Выпущено: START STUDIO, СУПЕР продакшн, Киностудия "Yellow, Black and White"
Жанр: Драма, комедия
Продолжительность: ~ 00:25:00
Субтитры: отсутствуют
Версия 18+. Внимание! Присутствует ненормативная лексика.

Режиссер: Максим Свешников

rating

В ролях: Полина Максимова, Анна Невская, Сергей Годин, Роман Маякин, Анастасия Попова (II), Дарья Руденок, Егор Корешков, Мария Фомина, Юлия Топольницкая, Максим Лагашкин, Тимоти Сэлл, Маргарита Дьяченкова

Описание: Женя Короткова противостояла серьёзной болезни целых три года и наконец победила в неравной битве. Она получила шанс исполнить все заветные желания из своего дневника: прыгнуть с тарзанки, научиться водить машину, выучить испанский и найти свою половинку. За год в жизни появилась новая любовь — Максим, красивый и успешный парень, с которым она познакомилась на Бали и собралась в путешествие по Европе. Женя возвращается в Москву, чтобы увидеть племянника и повидать подруг, и не планирует задерживаться больше, чем на пару дней. Но неожиданные обстоятельства спутают все её планы. Отзывчивая Женя не может пройти мимо беды и рискует угодить в водоворот проблем своих родных и друзей. В жизнь Коротковой возвращается всё её прошлое, включая Константина. Всё это время он хранил у себя блокнот Жени в надежде, что её самое главное желание связано с ним. А отец Жени, который бросил семью много лет назад, рассчитывает, что родные дочери примут его и будут о нём заботиться. Сестра Соня, которая в отличие от Жени не готова простить отца, своими руками рушит успешную карьеру блогера и свою семейную жизнь. Жене предстоит встретиться лицом к лицу со своим прошлым, преодолеть страхи и сомнения и выполнить самые важные желания, чтобы стать по-настоящему счастливой и любимой.

Качество: WEBRip 2160p
Формат: MKV

Видео: MPEG-4 AVC, ~ 28.0 Mбит/с, 3840х2160
Аудио: AAC, 2 ch, 256 Кбит/с
скриншот  скриншот  скриншот  скриншот  скриншот  

General
Unique ID : 338594754284415392699980495782822929658 (0xFEBAFA45E2E09DC49D6ED44D08F9E4FA)
Complete name : 257 причин, чтобы жить (2020) - 2 Сезон - WEB-DL 2160p/257 причин, чтобы жить (2020) - S2E01 - WEB-DL 2160p.mkv
Format : Matroska
Format version : Version 4
File size : 5.08 GiB
Duration : 26 min 5 s
Overall bit rate : 27.9 Mb/s
Encoded date : UTC 2020-11-04 07:00:06
Writing application : mkvmerge v51.0.0 ('I Wish') 64-bit
Writing library : libebml v1.4.0 + libmatroska v1.6.2

Video
ID : 1
Format : AVC
Format/Info : Advanced Video Codec
Format profile : High@L5.1
Format settings : CABAC / 4 Ref Frames
Format settings, CABAC : Yes
Format settings, Reference frames : 4 frames
Codec ID : V_MPEG4/ISO/AVC
Duration : 26 min 5 s
Bit rate : 28.0 Mb/s
Width : 3 840 pixels
Height : 2 160 pixels
Display aspect ratio : 16:9
Frame rate mode : Constant
Frame rate : 25.000 FPS
Color space : YUV
Chroma subsampling : 4:2:0
Bit depth : 8 bits
Scan type : Progressive
Bits/(Pixel*Frame) : 0.135
Stream size : 5.03 GiB (99%)
Writing library : x264 core 152
Encoding settings : cabac=1 / ref=2 / deblock=1:0:0 / analyse=0x3:0x113 / me=hex / subme=6 / psy=1 / psy_rd=1.00:0.00 / mixed_ref=1 / me_range=16 / chroma_me=1 / trellis=1 / 8x8dct=1 / cqm=0 / deadzone=21,11 / fast_pskip=1 / chroma_qp_offset=-2 / threads=12 / lookahead_threads=2 / sliced_threads=0 / nr=0 / decimate=1 / interlaced=0 / bluray_compat=0 / constrained_intra=0 / bframes=3 / b_pyramid=2 / b_adapt=1 / b_bias=0 / direct=1 / weightb=1 / open_gop=0 / weightp=1 / keyint=250 / keyint_min=25 / scenecut=40 / intra_refresh=0 / rc_lookahead=30 / rc=abr / mbtree=1 / bitrate=28000 / ratetol=1.0 / qcomp=0.60 / qpmin=0 / qpmax=69 / qpstep=4 / vbv_maxrate=33600 / vbv_bufsize=67200 / nal_hrd=none / filler=0 / ip_ratio=1.40 / aq=1:1.00
Default : Yes
Forced : No
Color range : Limited
Color primaries : BT.709
Transfer characteristics : BT.709
Matrix coefficients : BT.709

Audio
ID : 2
Format : AAC LC
Format/Info : Advanced Audio Codec Low Complexity
Codec ID : A_AAC-2
Duration : 26 min 5 s
Bit rate : 256 kb/s
Channel(s) : 2 channels
Channel layout : L R
Sampling rate : 48.0 kHz
Frame rate : 46.875 FPS (1024 SPF)
Compression mode : Lossy
Delay relative to video : -80 ms
Stream size : 47.7 MiB (1%)
Default : Yes
Forced : No

pb.wtf



Скачать 257 причин, чтобы жить через торрент http://d.radikal.ru/d35/2011/5e/08a97e70cca3.jpg Скачать фильм 257 причин, чтобы жить через торрент бесплантно в хорошем качестве Описание: Женя Короткова противостояла серьёзной болезни целых три года и наконец победила в неравной битве. Она получила шанс исполнить ... 10 10 1
Торрент: Зарегистрирован [2021-01-21 15:51] · скачан: 13 раз
Статус: √ проверено
Размер: 61.24 GB
Как cкачать? Как скачать 257 причин, чтобы жить через торрент | UTorrent

% Раздел Тема Автор DL S | L
Наши сериалы [ 14.48 GB ] 257 причин чтобы жить / Сезон: 2 / Серии: 1-13 из 13 [2020 WEBRip 1080p ] bober100 Скачать
3 | 0
Наши сериалы [ 3.94 GB ] 257 причин чтобы жить / Сезон: 2 / Серии: 1-13 из 13 [2020 WEBRip-AVC ] bober100 Скачать
2 | 0
Наши сериалы [ 4.45 GB ] 257 причин чтобы жить / Сезон: 2 / Серии: 1-13 из 13 [2020 WEBRip] GEKADOL Скачать
2 | 1

28-11-2019 20:33  

Отключить всю рекламу на сайте

    Дорогой пользователь! Огромная просьба, поблагодарите релизера, оцените раздачу и оставьте свои комментарий, если Вы скачали 257 причин, чтобы жить через торрент бесплатно! Внесите свою лепту в развитие PiratBit!
    Комментировать посты могут только пользователи прошедшие не сложную регистрацию
    Показать сообщения:    

    257 причин, чтобы жить через торрент
    Скачать бесплатно 257 причин, чтобы жить
    257 причин, чтобы жить скачать торрент
    257 причин, чтобы жить смотреть онлайн
    Cкачать фильм 257 причин, чтобы жить бесплатно
    257 причин, чтобы жить скачать торрент в хорошем качестве
    257 причин, чтобы жить смотреть онлайн бесплатно в хорошем качестве


    Вы не можете начинать темы
    Вы не можете отвечать на сообщения
    Вы не можете редактировать свои сообщения
    Вы не можете удалять свои сообщения
    Вы не можете голосовать в опросах
    Вы не можете прикреплять файлы к сообщениям
    Вы можете скачивать файлы