Достать ножи: Стеклянная луковица

MVO

Добыча

Дубляж

Уэнсдэй

1 сезон

Тор

Дубляж

13 клиническая

1 сезон

Жестокая ночь

MVO

Одни из нас

1 сезон

Deluxe

pack

Рекомендуем

30

Пиратка

ВАЖНО

ВАЖНО

Ghostwire

Пиратка

jed

RePack

nioh2

RePack

RDR2

RePack

NEED FOR SPEED™ PAYBACK

RePack

скачать торрент

Кинопоиск HD

Острые козырьки 6 сезон

6 сезон

FAR CRY 6

RePack

скачать торрент

Лицензия

скачать торрент

MVO

1

1 сезон

скачать торрент

1 сезон

скачать торрент

Лицензия

  

Блудный сын / Prodigal Son / Сезон: 2 / Серии: 1-13 из 13 (Адам Кэйн, Антонио Негрет, Роб Бэйли) [2021, Триллер, драма, криминал, детектив, WEB-DL 1080p] MVO [Novamedia]

Блудный сын через торрент pb.wtf

Размер: 36.67 GB | Добавлен: 2 мес. 10 д. назад | Торрент скачан:9 раз
Смотреть онлайн | Скачать | Поддержите нас   

23-01-2021 03:11 Блудный сын Скачать торрент  

Блудный сын | Prodigal Son
«Enter the mind of a serial killer»
Год выпуска: 2021
Страна: США
Выпущено: Berlanti Productions, VHPT! Co., FOX Entertainment, Warner Bros. Television
Жанр: Триллер, драма, криминал, детектив
Премьера (мир): 23 сентября 2019
Премьера (РФ): 24 сентября 2019
Продолжительность: 00:45:00
Перевод: Профессиональный (многоголосый закадровый) | Novamedia
Субтитры: Русские (Forced), Английские (SDH)

Режиссёр: Адам Кэйн, Антонио Негрет, Роб Бэйли

В ролях: Том Пэйн (Tom Payne), Майкл Шин (Michael Sheen), Лу Даймонд Филлипс (Lou Diamond Phillips), Холстон Сейдж (Halston Sage), Аврора Перрино (Aurora Perrineau), Фрэнк Хартс (Frank Harts), Кейко Аджена (Keiko Agena), Беллами Янг (Bellamy Young), Эсау Притчетт (Esau Pritchett), Молли Григгс (Molly Griggs), Анна Эйлинсфелд (Anna Eilinsfeld)

Описание: Доктор Мартин Уитли (Майкл Шин) был осужден за убийство 23 человек и получил прозвище Хирург за точность и аккуратность нанесенных жертвам увечий. Десять лет спустя сын заключенного Малкольм Брайт (Том Пэйн) стал известен как мастер по составлению психологических портретов маньяков. Полиция Нью-Йорка привлекает молодого человека к расследованию новой серии убийств. Уже на первом месте преступления Малкольм замечает сходство почерка неизвестного преступника с методами Хирурга, который ни разу не покидал тюрьмы. Так для Брайта начинаются погоня за призраком, сомнения в реальности происходящего и самое сложное — общение с отцом. Малкольму предстоит найти подражателя и постараться не сойти с ума.

rating

Качество: WEB-DL 1080p
Формат: MKV

Видео: MPEG-4 AVC, 1920x960 [2,000], 23.976 fps, ~ 9400 Kbps
Аудио 1: [Русский] AC3, 48 kHz, 2 ch, 192 Kbps - more / Novamedia
Аудио 2: [Английский] EAC3, 48 kHz, 6 ch, 640 Kbps
скриншот  скриншот  скриншот  скриншот  скриншот  скриншот  

Общее
Уникальный идентификатор : 174064165010364628396131207642234594043 (0x82F389EC6D04B33AAB75A7921665A2FB)
Полное имя : C:\Prodigal.Son.S02.1080p.AMZN.WEB-DL.Rus.Eng_BenderBEST\Prodigal.Son.S02E01.Its.All.In.The.Execution.1080p.AMZN.WEB-DL.Rus.Eng_BenderBEST.mkv
Формат : Matroska
Версия формата : Version 4
Размер файла : 3,12 Гбайт
Продолжительность : 43 м. 28 с.
Общий поток : 10,3 Мбит/сек
Название фильма : Prodigal Son S02E01 - ReJliz by BenderBEST
Дата кодирования : UTC 2021-01-14 09:35:00
Программа кодирования : mkvmerge v8.3.0 ('Over the Horizon') 64bit
Библиотека кодирования : libebml v1.3.1 + libmatroska v1.4.2

Видео
Идентификатор : 1
Формат : AVC
Формат/Информация : Advanced Video Codec
Профиль формата : [email protected]
Настройки формата : CABAC / 4 Ref Frames
Параметр CABAC формата : Да
Параметр RefFrames формата : 4 кадра
Идентификатор кодека : V_MPEG4/ISO/AVC
Продолжительность : 43 м. 28 с.
Вид битрейта : Постоянный
Битрейт : 9400 Кбит/сек
Номинальный битрейт : 10000 Кбит/сек
Ширина : 1920 пикселей
Высота : 960 пикселей
Соотношение сторон : 2,000
Режим частоты кадров : Постоянный
Частота кадров : 23,976 (24000/1001) кадра/сек
Цветовое пространство : YUV
Субдискретизация насыщенности : 4:2:0
Битовая глубина : 8 бит
Тип развёртки : Прогрессивная
Бит/(Пиксели*Кадры) : 0.209
Размер потока : 2,80 Гбайт (90%)
Язык : English
Default : Да
Forced : Да
Цветовой диапазон : Limited
Основные цвета : BT.709
Характеристики трансфера : BT.709
Коэффициенты матрицы : BT.709

Аудио #1
Идентификатор : 2
Формат : AC-3
Формат/Информация : Audio Coding 3
Коммерческое название : Dolby Digital
Идентификатор кодека : A_AC3
Продолжительность : 43 м. 28 с.
Вид битрейта : Постоянный
Битрейт : 192 Кбит/сек
Каналы : 2 канала
ChannelLayout : L R
Частота : 48,0 КГц
Частота кадров : 31,250 кадров/сек (1536 SPF)
Битовая глубина : 16 бит
Метод сжатия : С потерями
Размер потока : 59,7 Мбайт (2%)
Заголовок : AC3 2.0 @ 192 kbps - MVO, more / Novamedia
Язык : Russian
ServiceKind/String : Complete Main
Default : Да
Forced : Да

Аудио #2
Идентификатор : 3
Формат : E-AC-3
Формат/Информация : Enhanced AC-3
Коммерческое название : Dolby Digital Plus
Идентификатор кодека : A_EAC3
Продолжительность : 43 м. 28 с.
Вид битрейта : Постоянный
Битрейт : 640 Кбит/сек
Каналы : 6 каналов
ChannelLayout : L R C LFE Ls Rs
Частота : 48,0 КГц
Частота кадров : 31,250 кадров/сек (1536 SPF)
Метод сжатия : С потерями
Размер потока : 199 Мбайт (6%)
Заголовок : EAC3 5.1 @ 640 kbps
Язык : English
ServiceKind/String : Complete Main
Default : Нет
Forced : Нет

Текст #1
Идентификатор : 4
Формат : UTF-8
Идентификатор кодека : S_TEXT/UTF8
Идентификатор кодека/Информация : UTF-8 Plain Text
Заголовок : Forced
Язык : Russian
Default : Да
Forced : Да

Текст #2
Идентификатор : 5
Формат : UTF-8
Идентификатор кодека : S_TEXT/UTF8
Идентификатор кодека/Информация : UTF-8 Plain Text
Заголовок : SDH
Язык : English
Default : Нет
Forced : Нет

Когда раздача ведётся путём добавления новых серий, при каждом добавлении создётся новый торрент. Чтобы начать докачку новой серии, пользователям необходимо сделать следующее:
(1) остановить скачивание,
(2) удалить старый торрент у себя из клиента (старые серии удалять не надо),
(3) скачать новый торрент и запустить его у себя в клиенте вместо старого, при этом указать клиенту путь в старую папку, куда и должно происходить скачивание новых серий.
Ваш клиент при этом должен произвести хеширование (проверку) старой папки (если не производит сам - помогите ему сделать это), и будет докачивать только те серии, которых у вас ещё нет. Старые серии при этом не удаляются, а продолжают раздаваться!
Eсли вы уже удалили старые серии, то предотвратить повторную закачку старых серий можно, отжав галочку в соответсвующих местах при запуске нового торрента. По возможности, желательно не удалять старые серии как можно дольше, чтобы релизёр не столько продолжал раздавать старые серии, а смог сконцентрироваться на новых.




Скачать Блудный сын через торрент https://img16.lostpic.net/2019/09/27/cb02466c25435a04ef5f64ec6fc83489.jpg Скачать, смотреть онлайн Блудный сын бесплантно в хорошем качестве Описание: Доктор Мартин Уитли (Майкл Шин) был осужден за убийство 23 человек и получил прозвище Хирург за точность и аккуратность ... 10 10 4
Info! Золотая раздача, скачанное не засчитывается.
Торрент: Зарегистрирован [2022-11-27 19:48] · скачан: 9 раз
Статус: √ проверено
Размер: 36.67 GB
Как cкачать? Как скачать Блудный сын через торрент | UTorrent

% Раздел Тема Автор DL S | L
Зарубежные сериалы [ 38.45 GB ] Блудный сын / Prodigal Son / Сезон: 2 / Серии: 1-13 из 13 | MVO | 1080p bober100 Скачать
1 | 0
Зарубежные сериалы [ 4.24 GB ] Блудный сын / Prodigal Son / Сезон: 2 / Серии: 1-7 из 20 | MVO | DLRip bober100 Скачать
1 | 0
Зарубежные сериалы [ 19.72 GB ] Блудный сын / Prodigal Son / Сезон: 2 / Серии: 1-13 из 13 | MVO | 720p bober100 Скачать
1 | 0
Зарубежные сериалы [ 18.96 GB ] Блудный сын / Prodigal Son / Сезон: 2 / Серии: 1-13 из 13 | MVO | 720p bober100 Скачать
2 | 0

28-11-2019 20:33  


Отключить вcю реклaмy на сайте, в т.ч. и в плеере онлайн просмотра!

    Дорогой пользователь! Огромная просьба, поблагодарите релизера, оцените раздачу и оставьте свои комментарий, если Вы скачали Блудный сын через торрент бесплатно!!
    Комментировать посты могут только пользователи прошедшие не сложную регистрацию
    Показать сообщения:    


    Блудный сын через торрент
    Скачать бесплатно Блудный сын
    Блудный сын скачать торрент
    Блудный сын смотреть онлайн
    Cкачать фильм Блудный сын бесплатно
    Блудный сын скачать торрент в хорошем качестве
    Блудный сын смотреть онлайн бесплатно в хорошем качестве
    Вы не можете начинать темы
    Вы не можете отвечать на сообщения
    Вы не можете редактировать свои сообщения
    Вы не можете удалять свои сообщения
    Вы не можете голосовать в опросах
    Вы не можете прикреплять файлы к сообщениям
    Вы можете скачивать файлы
    Блудный сын / Prodigal Son / Сезон: 2 / Серии: 1-13 из 13 [2021, Триллер, драма, криминал, детектив, WEB-DL 1080p] MVO [Novamedia] смотреть онлайн, скачать торрент picoco.icu