Присоединяйтесь к нам в Telegram!, здесь всегда актуальный адрес сайта, оперативная поддержка и многое другое!!

>

5.9

iTunes

7.4

iTunes

9.4

1 сезон

1

7.4

2 сезон

7.2

iTunes

7.3

1 сезон

13

6.1

iTunes

8.3

GOG

30

ULTIMATE

pack

9.9

Лицензия

ВАЖНО

ИГРА 18+

pack

7.3

RePack

MK11

7.7

RePack

jed

7.8

RePack

fifa19

8.5

RePack

RDR2

RePack

NEED FOR SPEED™ PAYBACK

5 сезон

9 сезон

Бесстыжие 9 сезон

Все сериалы

все сериалы на PB.wtf

RePack

FAR CRY 5

Anonymous, добрый день, мы катастрофически не успеваем собрать деньги на оплату серверов, помогите нам пожалуйста 5,10,15р., для нас важна любая помощь . В качестве благодарности мы отключим Вам всю рекламу на сайте (укажите свой ник в строку Ваше имя)!

×
  
Magnet ссылка

Космические рейнджеры / Battle in Space: The Armada Attacks (Санджай Эф Шарма, Эндрю Якш, Лукас Кендалл, Тоби Роуэл, Луис Тиноко) [2021, Фантастика, боевик, WEB-DLRip-AVC] [MVO] [iTunes] от MediaBit pb.wtf

Космические рейнджеры через торрент pb.wtf

Раздают: 1 [ 0 KB/s ]
Размер: 1.45 GB | Добавлен: 10 мес. назад | Торрент скачан:351 раз
Смотреть онлайн Космические рейнджеры | Скачать    Ребята, помогите собрать деньги на оплату серверов!!!

23-01-2021 19:44 Космические рейнджеры Скачать торрент  


Космические рейнджеры / Battle in Space: The Armada Attacks
Информация о фильме:
Название: Космические рейнджеры
Оригинальное название: Battle in Space: The Armada Attacks
Год выхода: 2021
Жанр: Фантастика, боевик
Режиссер: Санджай Эф Шарма, Эндрю Якш, Лукас Кендалл, Тоби Роуэл, Луис Тиноко

В ролях: Эндрю Трой, Дуглас Тэйт, Мелина Мэтьюс, Джесс Габор, Деклан Черчилль Картер, Юэ Чжи, Гэри Льюис (II), Миа Ларднер, Оливер Ларднер, Кэтлин Мейсон, Том Фаррах, Трип Хоуп, Эрик Палладино, Линда Уэйнриб, Кайл Мейсон, Скотт Робсон

Описание: В 2420 году, после того как инопланетяне и могущественные космические волшебники поработили человеческие деревни, группа повстанцев организовала контратаку против своих космических повелителей, пилотируя экипированные новейшим вооружением космические корабли.



Страна: США
Студия: Hewes Pictures
Продолжительность: 01:30:24
Перевод: Профессиональный (многоголосый, закадровый) - iTunes



Информация о файле:
Кодек: AVC
Формат: MKV
Качество: WEB-DLRip-AVC
Видео: MPEG-4 AVC, 1024x456, 23.976 fps, 1913 kbps
Аудио RU: AC3, 2 ch, 48 kHz, 192 kbps
Аудио UKR: AC3, 2 ch, 48 kHz, 192 kbps
Субтитры: Английские
Навигация по главам: Нет

General
Unique ID : 332243667331324891913437116389051361008 (0xF9F3CD82A395AC7786011982856C66F0)
Complete name : D:uTorrentРипы_от_wolf1245_MediaBitBattle in Space- The Armada Attacks.2021.MVO.WEB-DLRip-AVC_wolf1245_MediaBit.mkv
Format : Matroska
Format version : Version 4
File size : 1.45 GiB
Duration : 1 h 30 min
Overall bit rate : 2 295 kb/s
Movie name : Battle in Space: The Armada Attacks.2021.MVO.WEB-DLRip-AVC_wolf1245_MediaBit
Encoded date : UTC 2021-01-23 19:32:25
Writing application : mkvmerge v52.0.0 ('Secret For The Mad') 64-bit
Writing library : libebml v1.4.1 + libmatroska v1.6.2
Video
ID : 1
Format : AVC
Format/Info : Advanced Video Codec
Format profile : High@L4.1
Format settings : CABAC / 12 Ref Frames
Format settings, CABAC : Yes
Format settings, Reference frames : 12 frames
Codec ID : V_MPEG4/ISO/AVC
Duration : 1 h 30 min
Bit rate : 1 913 kb/s
Width : 1 024 pixels
Height : 456 pixels
Display aspect ratio : 2.25:1
Frame rate mode : Constant
Frame rate : 23.976 (24000/1001) FPS
Color space : YUV
Chroma subsampling : 4:2:0
Bit depth : 8 bits
Scan type : Progressive
Bits/(Pixel*Frame) : 0.171
Stream size : 1.21 GiB (83%)
Title : _wolf1245_MediaBit
Writing library : x264 core 157 r2958 57baac4
Encoding settings : cabac=1 / ref=12 / deblock=1:-3:-3 / analyse=0x3:0x133 / me=umh / subme=10 / psy=1 / psy_rd=1.05:0.05 / mixed_ref=1 / me_range=48 / chroma_me=1 / trellis=2 / 8x8dct=1 / cqm=0 / deadzone=21,11 / fast_pskip=0 / chroma_qp_offset=-3 / threads=10 / lookahead_threads=2 / sliced_threads=0 / nr=0 / decimate=0 / interlaced=0 / bluray_compat=0 / constrained_intra=0 / bframes=12 / b_pyramid=2 / b_adapt=2 / b_bias=0 / direct=3 / weightb=1 / open_gop=0 / weightp=2 / keyint=240 / keyint_min=24 / scenecut=40 / intra_refresh=0 / rc_lookahead=150 / rc=2pass / mbtree=0 / bitrate=1913 / ratetol=1.0 / qcomp=0.60 / qpmin=0 / qpmax=69 / qpstep=4 / cplxblur=20.0 / qblur=0.5 / vbv_maxrate=50000 / vbv_bufsize=62500 / nal_hrd=none / filler=0 / ip_ratio=1.40 / pb_ratio=1.30 / aq=3:0.80
Language : English
Default : Yes
Forced : No
Color range : Limited
Color primaries : BT.709
Transfer characteristics : BT.709
Matrix coefficients : BT.709
Audio #1
ID : 2
Format : AC-3
Format/Info : Audio Coding 3
Commercial name : Dolby Digital
Codec ID : A_AC3
Duration : 1 h 30 min
Bit rate mode : Constant
Bit rate : 192 kb/s
Channel(s) : 2 channels
Channel layout : L R
Sampling rate : 48.0 kHz
Frame rate : 31.250 FPS (1536 SPF)
Compression mode : Lossy
Stream size : 124 MiB (8%)
Title : MVO | iTunes
Language : Russian
Service kind : Complete Main
Default : Yes
Forced : No
Audio #2
ID : 3
Format : AC-3
Format/Info : Audio Coding 3
Commercial name : Dolby Digital
Codec ID : A_AC3
Duration : 1 h 30 min
Bit rate mode : Constant
Bit rate : 192 kb/s
Channel(s) : 2 channels
Channel layout : L R
Sampling rate : 48.0 kHz
Frame rate : 31.250 FPS (1536 SPF)
Compression mode : Lossy
Stream size : 124 MiB (8%)
Title : MVO | iTunes
Language : Ukrainian
Service kind : Complete Main
Default : No
Forced : No
Text
ID : 4
Format : UTF-8
Codec ID : S_TEXT/UTF8
Codec ID/Info : UTF-8 Plain Text
Duration : 1 h 25 min
Bit rate : 37 b/s
Count of elements : 997
Stream size : 23.6 KiB (0%)
Title : SDH
Language : English
Default : No
Forced : No
Релиз от: & &
pb.wtf



Скачать Космические рейнджеры через торрент https://i114.fastpic.ru/big/2021/0121/10/f9e58c32ddb7fa2684cb9b94e3514410.jpg Скачать, смотреть онлайн Космические рейнджеры бесплантно в хорошем качестве Описание: В 2420 году, после того как инопланетяне и могущественные космические волшебники поработили человеческие деревни, группа ... 9.9 10 11
Торрент: Зарегистрирован [2021-01-23 19:44] · скачан: 351 раз
Статус: T временная
Размер: 1.45 GB
Как cкачать? Как скачать Космические рейнджеры через торрент | UTorrent

28-11-2019 20:33  

Отключить всю рекламу на сайте

    Дорогой пользователь! Огромная просьба, поблагодарите релизера, оцените раздачу и оставьте свои комментарий, если Вы скачали Космические рейнджеры через торрент бесплатно!
    Комментировать посты могут только пользователи прошедшие не сложную регистрацию
    Показать сообщения:    

    Космические рейнджеры через торрент
    Скачать бесплатно Космические рейнджеры
    Космические рейнджеры скачать торрент
    Космические рейнджеры смотреть онлайн
    Cкачать фильм Космические рейнджеры бесплатно
    Космические рейнджеры скачать торрент в хорошем качестве
    Космические рейнджеры смотреть онлайн бесплатно в хорошем качестве


    Вы не можете начинать темы
    Вы не можете отвечать на сообщения
    Вы не можете редактировать свои сообщения
    Вы не можете удалять свои сообщения
    Вы не можете голосовать в опросах
    Вы не можете прикреплять файлы к сообщениям
    Вы можете скачивать файлы