1 сезон

1 сезон

iTunes

1

КиноПоиск HD

Кинопоиск HD

iTunes

13

1 сезон

RePack

30

Новинка

ВАЖНО

ИГРА 18+

pack

RePack

MK11
pack

Легкие деньги

RePack

jed

RePack

fifa19

RePack

RDR2

RePack

NEED FOR SPEED™ PAYBACK

4 сезон

9 сезон

Бесстыжие 9 сезон

Все сериалы

все сериалы на PB.wtf

RePack

FAR CRY 5
  
Magnet ссылка

Поворот не туда / Wrong Turn (Роб Шмидт) [2003 г., ужасы, BDRip-AVC, Дубляж] pb.wtf

Поворот не туда через торрент pb.wtf

Размер: 2.32 GB | Добавлен: 2 мес. 25 д. назад | Торрент скачан:18 раз
Скачать  

24-01-2021 12:26 Поворот не туда Скачать торрент  

Поворот не туда /
Wrong Turn
Год выпуска: 2003
Страна: США, Германия
Жанр: ужасы
Продолжительность: 01:24:15
Перевод: Дубляж
Субтитры: отсутствуют

Режиссер: Роб Шмидт

Премьера в мире: 30 мая 2003

rating

В ролях: Десмонд Хэррингтон, Элиза Душку, Эммануэль Шрики, Джереми Систо, Кевин Зегерс, Линди Бут, Джулиан Ричингс, Гэрри Роббинс, Тед Кларк, Ивонн Годри

Описание: Потерявшись в лесах Западной Вирджинии в результате рокового стечения обстоятельств, группа молодых людей пытается добраться до ближайшего телефона. Но вместо телефона им суждено найти дом в горах, увешанный страшным оружием и отвратительными трофеями. Кто или что живёт в этом доме? Молодые люди начинают понимать, что все их злоключения — способ загнать дичь в ловушку, где они — это дичь, а зловещие охотники — обитатели дома.

Качество: BDRip-AVC
Формат: MKV
Видео кодек: H.264
Аудио кодек: AC3
Видео: AVC/H.264, 1024x554, ~3500 kbps
Аудио#1: AC3, 6 ch, 448 kbps - Дубляж
Релиз от: winchester00100010
x264 [info]: profile Progressive High, level 4.1, 4:2:0, 8-bit
x264 [info]: frame I:1050 Avg QP:14.91 size: 92948 PSNR Mean Y:47.96 U:52.86 V:53.75 Avg:49.04 Global:48.52
x264 [info]: frame P:29350 Avg QP:16.69 size: 33155 PSNR Mean Y:46.29 U:52.70 V:53.44 Avg:47.48 Global:46.73
x264 [info]: frame B:90788 Avg QP:18.56 size: 12541 PSNR Mean Y:45.17 U:52.15 V:53.01 Avg:46.40 Global:45.64

Общее
Уникальный идентификатор : 219446005073271467437933812100375586100 (0xA517C363590782DF81AB4665146D2534)
Полное имя : D:\Мои раздачи и рипы\Поворот не туда Коллекция\Wrong.Turn.2003.BDRip-AVC.mkv
Формат : Matroska
Версия формата : Version 2
Размер файла : 2,32 Гбайт
Продолжительность : 1 ч. 24 м.
Общий поток : 3 946 Кбит/сек
Дата кодирования : UTC 2021-01-24 10:47:23
Программа кодирования : mkvmerge v5.8.0 ('No Sleep / Pillow') built on Sep 2 2012 15:37:04
Библиотека кодирования : libebml v1.2.3 + libmatroska v1.3.0

Видео
Идентификатор : 1
Формат : AVC
Формат/Информация : Advanced Video Codec
Профиль формата : High@L4.1
Настройки формата : CABAC / 12 Ref Frames
Параметр CABAC формата : Да
Параметр RefFrames формата : 12 кадров
Идентификатор кодека : V_MPEG4/ISO/AVC
Продолжительность : 1 ч. 24 м.
Битрейт : 3 500 Кбит/сек
Ширина : 1 024 пикселя
Высота : 554 пикселя
Соотношение сторон : 1,85:1
Режим частоты кадров : Постоянный
Частота кадров : 23,976 (24000/1001) кадра/сек
Цветовое пространство : YUV
Субдискретизация насыщенности : 4:2:0
Битовая глубина : 8 бит
Тип развёртки : Прогрессивная
Бит/(Пиксели*Кадры) : 0.257
Размер потока : 2,01 Гбайт (87%)
Библиотека кодирования : x264 core 157 r2969 d4099dd
Настройки программы : cabac=1 / ref=12 / deblock=1:-3:-3 / analyse=0x3:0x133 / me=umh / subme=9 / psy=1 / psy_rd=1.00:0.15 / mixed_ref=1 / me_range=32 / chroma_me=1 / trellis=2 / 8x8dct=1 / cqm=0 / deadzone=21,11 / fast_pskip=0 / chroma_qp_offset=-3 / threads=12 / lookahead_threads=2 / sliced_threads=0 / nr=0 / decimate=0 / interlaced=0 / bluray_compat=0 / constrained_intra=0 / bframes=6 / b_pyramid=2 / b_adapt=2 / b_bias=0 / direct=3 / weightb=1 / open_gop=0 / weightp=2 / keyint=240 / keyint_min=23 / scenecut=40 / intra_refresh=0 / rc_lookahead=40 / rc=2pass / mbtree=0 / bitrate=3500 / ratetol=1.0 / qcomp=0.60 / qpmin=0 / qpmax=69 / qpstep=4 / cplxblur=20.0 / qblur=0.5 / vbv_maxrate=50000 / vbv_bufsize=62500 / nal_hrd=none / filler=0 / ip_ratio=1.40 / pb_ratio=1.30 / aq=1:0.80
Язык : English
Default : Да
Forced : Нет
Duration_Source : General_Duration

Аудио
Идентификатор : 2
Формат : AC-3
Формат/Информация : Audio Coding 3
Коммерческое название : Dolby Digital
Идентификатор кодека : A_AC3
Продолжительность : 1 ч. 24 м.
Вид битрейта : Постоянный
Битрейт : 448 Кбит/сек
Каналы : 6 каналов
Channel layout : L R C LFE Ls Rs
Частота : 48,0 КГц
Частота кадров : 31,250 кадров/сек (1536 SPF)
Метод сжатия : С потерями
Размер потока : 270 Мбайт (11%)
Заголовок : Дубляж (Лицензия)
Язык : Russian
Service kind : Complete Main
Default : Да
Forced : Нет
Duration_Source : General_Duration

pb.wtf



Скачать Поворот не туда через торрент https://b.radikal.ru/b29/1910/e5/a33e8787901c.jpg Скачать фильм Поворот не туда через торрент бесплантно в хорошем качестве Описание: Потерявшись в лесах Западной Вирджинии в результате рокового стечения обстоятельств, группа молодых людей пытается добраться до ... 10 10 3
Торрент: Зарегистрирован [2021-01-24 12:26] · скачан: 18 раз
Статус: √ проверено
Размер: 2.32 GB
Как cкачать? Как скачать Поворот не туда через торрент | UTorrent

% Раздел Тема Автор DL S | L
Фильмы 2021 [DVDrip, WEB-DLRip, HDrip] (DUB, MVO) [ 2.13 GB ] Поворот не туда: Наследие / Wrong Turn: The Foundation [2021 BDRip] - Twi7ter Скачать
24 | 2
Фильмы 2021 [DVDrip, WEB-DLRip, HDrip] (DUB, MVO) [ 1.41 GB ] Поворот не туда: Наследие / Wrong Turn: The Foundation [2021 BDRip] - Twi7ter Скачать
23 | 0
Фильмы 2021 [DVDrip, WEB-DLRip, HDrip] (DUB, MVO) [ 2.81 GB ] Поворот не туда: Наследие / Wrong Turn: The Foundation [2021 HDRip-AVC] [DUB MVO AVO] [ HDRezka Studio Андрей Дольский] от MediaBit Lithuania Скачать
2 | 0
Фильмы 2021 [DVDrip, WEB-DLRip, HDrip] (DUB, MVO) [ 747 MB ] Поворот не туда: Наследие / Wrong Turn: The Foundation [2021 HDRip] bober100 Скачать
1 | 0
Фильмы (Blu-ray, BD-Remux, HDDVD) [ 31.03 GB ] Поворот не туда: Наследие / Wrong Turn: The Foundation [2021 BD Remux 1080p] +MVO [HDRezka Studio] +AVO [A. Дольский] bober100 Скачать
1 | 0
Фильмы 2021 [DVDrip, WEB-DLRip, HDrip] (DUB, MVO) [ 1.41 GB ] Поворот не туда: Наследие / Wrong Turn: The Foundation [2021 BDRip] bober100 Скачать
2 | 0
Фильмы [HD 720p, 1080p] (Хороший звук DUB, MVO) [ 7.41 GB ] Поворот не туда: Наследие / Wrong Turn: The Foundation [2021 BDRip 720p] bober100 Скачать
3 | 0

28-11-2019 20:33  

Отключить всю рекламу на сайте

    Дорогой пользователь! Огромная просьба, поблагодарите релизера, оцените раздачу и оставьте свои комментарий, если Вы скачали Поворот не туда через торрент бесплатно! Внесите свою лепту в развитие PiratBit!
    Комментировать посты могут только пользователи прошедшие не сложную регистрацию
    Показать сообщения:    

    Поворот не туда через торрент
    Скачать бесплатно Поворот не туда
    Поворот не туда скачать торрент
    Поворот не туда смотреть онлайн
    Cкачать фильм Поворот не туда бесплатно
    Поворот не туда скачать торрент в хорошем качестве
    Поворот не туда смотреть онлайн бесплатно в хорошем качестве


    Вы не можете начинать темы
    Вы не можете отвечать на сообщения
    Вы не можете редактировать свои сообщения
    Вы не можете удалять свои сообщения
    Вы не можете голосовать в опросах
    Вы не можете прикреплять файлы к сообщениям
    Вы можете скачивать файлы