Anonymous, добрый день, присоединяйтесь к нам в Telegram!, здесь всегда актуальный адрес сайта, оперативная поддержка и многое другое!

>

5.6

iTunes

7.4

iTunes

5.7

MVO

1

7.7

1 сезон

6.8

iTunes

7.3

1 сезон

13

6.7

1 сезон

8.3

RePack

30

ULTIMATE

pack

9.9

Лицензия

ВАЖНО

ИГРА 18+

pack

7.3

RePack

MK11

7.7

RePack

jed

7.8

RePack

fifa19

8.5

RePack

RDR2

RePack

NEED FOR SPEED™ PAYBACK

4 сезон

9 сезон

Бесстыжие 9 сезон

Все сериалы

все сериалы на PB.wtf

RePack

FAR CRY 5

Anonymous, добрый день, мы катастрофически не успеваем собрать деньги на оплату серверов, помогите нам пожалуйста 5,10,15р., для нас важна любая помощь . В качестве благодарности мы отключим Вам всю рекламу на сайте (укажите свой ник в строку Ваше имя)!

×
  
Magnet ссылка

Полёт / Сезон: 1 / Серии: 1-8 из 8 (Пётр Тодоровский) [2021, Драма, триллер, WEBRip, (Версия 18+)] pb.wtf

Полёт через торрент pb.wtf

Раздают: 2 [ 0 KB/s ] Качают: 1 [ 0 KB/s ]
Размер: 4.69 GB | Добавлен: 8 мес. назад | Торрент скачан:206 раз
Смотреть онлайн Полёт | Скачать    Ребята, помогите собрать деньги на оплату серверов!!!

25-01-2021 18:53 Полёт Скачать торрент  

Полёт
Год выпуска: 2021
Страна: Россия
Выпущено: Premier Studios
Жанр: Драма, триллер
Продолжительность: ~ 00:50:00
Субтитры: отсутствуют
Версия 18+. Внимание! Присутствует ненормативная лексика.

Режиссер: Пётр Тодоровский

rating

В ролях: Никита Ефремов, Михаил Ефремов, Павел Табаков, Оксана Акиньшина, Юлия Хлынина, Евгения Добровольская, Артур Сопельник, Александр Робак, Светлана Камынина, Сергей Чонишвили, Тимофей Трибунцев, Александра Урсуляк, Алексей Макаров, Олег Васильков, Виктория Толстоганова, Екатерина Шумакова, Лиза Медведева, Ангелина Стречина

Описание: Обычная командировка сотрудников строительной компании обернулась трагедией: самолет, на котором они должны были лететь, разбивается. Чудом выжившие начинают вести себя странно: спортсмен Дмитрий Юрьич беспробудно пьёт, робкий интеллигент Илюша уходит вразнос, а исключительно неприятный Жабенко начинает ходить на похороны погибших в катастрофе и наоборот оказывается добрым и сочувствующим человеком. В каждой серии рассказана история одного из героев, которых объединила катастрофа. Неожиданные перемены настораживают знакомых, но никто даже не догадывается, какую зловещую тайну они все скрывают...

Качество: WEBRip
Формат: AVI

Видео: XviD, ~ 1500 Кбит/с, 720x304
Аудио: 48.0 kHz, AC3 Dolby Digital, 2/0 (L,R) ch, ~ 192 kbps
скриншот  скриншот  скриншот  скриншот  

Общее
Полное имя : C:\Polet.2020.WEB-DLRip.25Kuzmich\Polet.e01.WEB-DLRip.25Kuzmich.avi
Формат : AVI
Формат/Информация : Audio Video Interleave
Размер файла : 600 Мбайт
Продолжительность : 49 м. 52 с.
Общий поток : 1683 Кбит/сек
Программа кодирования : VirtualDubMod 1.5.10.3 | www.virtualdub-fr.org || (build 2550/release)
Библиотека кодирования : VirtualDubMod build 2550/release

Видео
Идентификатор : 0
Формат : MPEG-4 Visual
Профиль формата : Advanced Simple@L5
Настройки формата : BVOP1
Параметр BVOP формата : 1
Параметр QPel формата : Нет
Параметр GMC формата : Без точки перехода
Параметр матрицы формата : Default (MPEG)
Идентификатор кодека : XVID
Идентификатор кодека/Подсказка : XviD
Продолжительность : 49 м. 52 с.
Битрейт : 1415 Кбит/сек
Ширина : 720 пикселей
Высота : 304 пикселя
Соотношение сторон : 2,35:1
Частота кадров : 25,000 кадров/сек
Цветовое пространство : YUV
Субдискретизация насыщенности : 4:2:0
Битовая глубина : 8 бит
Тип развёртки : Прогрессивная
Метод сжатия : С потерями
Бит/(Пиксели*Кадры) : 0.259
Размер потока : 505 Мбайт (84%)
Библиотека кодирования : XviD 73

Аудио
Идентификатор : 1
Формат : AC-3
Формат/Информация : Audio Coding 3
Коммерческое название : Dolby Digital
Идентификатор кодека : 2000
Продолжительность : 49 м. 52 с.
Вид битрейта : Постоянный
Битрейт : 192 Кбит/сек
Каналы : 2 канала
ChannelLayout : L R
Частота : 48,0 КГц
Частота кадров : 31,250 кадров/сек (1536 SPF)
Битовая глубина : 16 бит
Метод сжатия : С потерями
Размер потока : 68,5 Мбайт (11%)
Выравнивание : Разделение по промежуткам
ServiceKind/String : Complete Main

Когда раздача ведётся путём добавления новых серий, при каждом добавлении создётся новый торрент. Чтобы начать докачку новой серии, пользователям необходимо сделать следующее:
(1) остановить скачивание,
(2) удалить старый торрент у себя из клиента (старые серии удалять не надо),
(3) скачать новый торрент и запустить его у себя в клиенте вместо старого, при этом указать клиенту путь в старую папку, куда и должно происходить скачивание новых серий.
Ваш клиент при этом должен произвести хеширование (проверку) старой папки (если не производит сам - помогите ему сделать это), и будет докачивать только те серии, которых у вас ещё нет. Старые серии при этом не удаляются, а продолжают раздаваться!
Eсли вы уже удалили старые серии, то предотвратить повторную закачку старых серий можно, отжав галочку в соответсвующих местах при запуске нового торрента. По возможности, желательно не удалять старые серии как можно дольше, чтобы релизёр не столько продолжал раздавать старые серии, а смог сконцентрироваться на новых.

pb.wtf



Скачать Полёт через торрент https://c.radikal.ru/c32/2101/1f/fd1e5106b685.jpg Скачать, смотреть онлайн Полёт бесплантно в хорошем качестве Описание: Обычная командировка сотрудников строительной компании обернулась трагедией: самолет, на котором они должны были лететь, ... 8.4 10 12
Торрент: Зарегистрирован [2021-02-04 20:10] · скачан: 206 раз
Статус: √ проверено
Размер: 4.69 GB
Как cкачать? Как скачать Полёт через торрент | UTorrent

% Раздел Тема Автор DL S | L
TNT serials [ 13.61 GB ] Полёт / Сезон: 1 / Серии: 1-8 из 8 [2021 HDTV 1080i] bober100 Скачать
3 | 0
TNT serials [ 13.26 GB ] Полёт / Сезон: 1 / Серии: 1-8 из 8 [2021 WEBRip 1080p ] bober100 Скачать
3 | 0
TNT serials [ 4.98 GB ] Полёт / Сезон: 1 / Серии: 1-8 из 8 [2021 SATRip] bober100 Скачать
1 | 0
TNT serials [ 9.01 GB ] Полёт / Сезон: 1 / Серии: 1-8 из 8 [2021 WEBRip 720p ] bober100 Скачать
4 | 1
TNT serials [ 5.21 GB ] Полёт / Сезон: 1 / Серии: 1-8 из 8 [2021 WEBRip-AVC ] bober100 Скачать
1 | 0


Последний раз редактировалось: bober100 (2021-02-04 20:09), всего редактировалось 6 раз(а)

28-11-2019 20:33  

Отключить всю рекламу на сайте

26-01-2021 14:50 Полёт Скачать торрент  

как всегда по серии в неделю?pb.wtf



28-01-2021 07:33 Полёт Скачать торрент  

3?pb.wtf



    Дорогой пользователь! Огромная просьба, поблагодарите релизера, оцените раздачу и оставьте свои комментарий, если Вы скачали Полёт через торрент бесплатно!
    Комментировать посты могут только пользователи прошедшие не сложную регистрацию
    Показать сообщения:    

    Полёт через торрент
    Скачать бесплатно Полёт
    Полёт скачать торрент
    Полёт смотреть онлайн
    Cкачать фильм Полёт бесплатно
    Полёт скачать торрент в хорошем качестве
    Полёт смотреть онлайн бесплатно в хорошем качестве


    Вы не можете начинать темы
    Вы не можете отвечать на сообщения
    Вы не можете редактировать свои сообщения
    Вы не можете удалять свои сообщения
    Вы не можете голосовать в опросах
    Вы не можете прикреплять файлы к сообщениям
    Вы можете скачивать файлы