Доктор Стрэндж

Лицензия

Добыча

Дубляж

Уэнсдэй

1 сезон

Тор

Дубляж

В эфире

Дубляж

Там, где раки поют

MVO

Властелин колец

1 сезон

Deluxe

pack

Рекомендуем

30

Пиратка

ВАЖНО

ВАЖНО

Ghostwire

Пиратка

jed

RePack

nioh2

RePack

RDR2

RePack

NEED FOR SPEED™ PAYBACK

RePack

скачать торрент

Кинопоиск HD

Острые козырьки 6 сезон

6 сезон

FAR CRY 6

RePack

скачать торрент

Лицензия

скачать торрент

MVO

1

1 сезон

скачать торрент

1 сезон

скачать торрент

Лицензия

  

Порнолоджи, или Милашка как ты / A Nice Girl Like You (Крис Райделл, Ник Райделл) [2020, Комедия, мелодрама, BD Remux 1080p] Дубляж [iTunes]

Порнолоджи, или Милашка как ты через торрент pb.wtf

Размер: 25.4 GB | Добавлен: 1 год 10 мес. назад | Торрент скачан:21 раз
Смотреть онлайн | Скачать   

29-01-2021 03:40 Порнолоджи, или Милашка как ты Скачать торрент  

Порнолоджи, или Милашка как ты | A Nice Girl Like You
Год выпуска: 2020
Страна: США
Студия: Affirmative Entertainment, Caliwood Pictures, SPR Media
Жанр: Комедия, мелодрама
Продолжительность: 01:34:10
Перевод: Дублированный | iTunes
Субтитры: Английские

Режиссер: Крис Райделл, Ник Райделл

rating

В ролях: Люси Хейл, Минди Кон, Джеки Круз, Леонидас Гулаптис, Адхир Кальян, Стивен Фридрих, Скай П. Маршалл, Леа МакКендрик, Джина Пейнбьянко, Надя Куинн

Описание: Если парень обвинил тебя в слишком большой скованности в сексуальной жизни и даже закрепощенности, есть два варианта, как с ним поступить: либо прибить его на месте, либо бросить... Люси талантливый музыкант и очаровательная девушка. Она составляет план с наиболее сумасшедшими идеями, которые должна реализовать, чтобы познать свои возможности и тайные желания.

Качество: BD Remux 1080p
Формат: MKV

Видео: MPEG-4 AVC, 1920x1080, 34.4 Mbit/s, 24.000 fps
Аудио #01: 48 kHz, AC3, 5.1, 384 Kbps | iTunes | RUS |
Аудио #02: 48 kHz, DTS-HD MA, 5.1, 3797 Kbps | Оригинал | ENG |
скриншот  скриншот  скриншот  скриншот  скриншот  

General
Unique ID : 97614300093691818682742258865058923691 (0x496FD492269B10B99FC12E7775E0C4AB)
Complete name : D:Video1A.Nice.Girl.Like.You.2020.BDREMUX.1080p.seleZen.mkv
Format : Matroska
Format version : Version 4
File size : 25.4 GiB
Duration : 1 h 34 min
Overall bit rate mode : Variable
Overall bit rate : 38.6 Mb/s
Movie name : A Nice Girl Like You 2020 from seleZen
Encoded date : UTC 2021-01-29 01:59:25
Writing application : mkvmerge v52.0.0 ('Secret For The Mad') 64-bit
Writing library : libebml v1.4.1 + libmatroska v1.6.2

Video
ID : 1
Format : AVC
Format/Info : Advanced Video Codec
Format profile : [email protected]
Format settings : CABAC / 4 Ref Frames
Format settings, CABAC : Yes
Format settings, Reference : 4 frames
Codec ID : V_MPEG4/ISO/AVC
Duration : 1 h 34 min
Bit rate mode : Variable
Bit rate : 34.4 Mb/s
Maximum bit rate : 36.0 Mb/s
Width : 1 920 pixels
Height : 1 080 pixels
Display aspect ratio : 16:9
Frame rate mode : Constant
Frame rate : 24.000 FPS
Color space : YUV
Chroma subsampling : 4:2:0
Bit depth : 8 bits
Scan type : Progressive
Bits/(Pixel*Frame) : 0.692
Stream size : 22.7 GiB (89%)
Language : English
Default : Yes
Forced : No

Audio #1
ID : 2
Format : AC-3
Format/Info : Audio Coding 3
Commercial name : Dolby Digital
Codec ID : A_AC3
Duration : 1 h 34 min
Bit rate mode : Constant
Bit rate : 384 kb/s
Channel(s) : 6 channels
Channel layout : L R C LFE Ls Rs
Sampling rate : 48.0 kHz
Frame rate : 31.250 FPS (1536 SPF)
Compression mode : Lossy
Stream size : 259 MiB (1%)
Language : Russian
Service kind : Complete Main
Default : Yes
Forced : Yes

Audio #2
ID : 3
Format : DTS XLL
Format/Info : Digital Theater Systems
Commercial name : DTS-HD Master Audio
Codec ID : A_DTS
Duration : 1 h 34 min
Bit rate mode : Variable
Bit rate : 3 797 kb/s
Channel(s) : 6 channels
Channel layout : C L R Ls Rs LFE
Sampling rate : 48.0 kHz
Frame rate : 93.750 FPS (512 SPF)
Bit depth : 24 bits
Compression mode : Lossless
Stream size : 2.50 GiB (10%)
Title : Original
Language : English
Default : No
Forced : No

Text
ID : 4
Format : UTF-8
Codec ID : S_TEXT/UTF8
Codec ID/Info : UTF-8 Plain Text
Duration : 1 h 34 min
Bit rate : 72 b/s
Count of elements : 2091
Stream size : 50.0 KiB (0%)
Title : SDH
Language : English
Default : No
Forced : No

Menu
00:00:00.000 : de:Глава 01
00:06:29.750 : de:Глава 02
00:13:56.125 : de:Глава 03
00:21:09.083 : de:Глава 04
00:26:11.417 : de:Глава 05
00:32:33.708 : de:Глава 06
00:37:48.542 : de:Глава 07
00:41:47.750 : de:Глава 08
00:48:12.917 : de:Глава 09
00:56:31.500 : de:Глава 10
01:01:36.333 : de:Глава 11
01:06:44.333 : de:Глава 12
01:13:05.833 : de:Глава 13
01:17:08.833 : de:Глава 14
01:21:14.000 : de:Глава 15
01:29:34.042 : de:Глава 16




Скачать Порнолоджи, или Милашка как ты через торрент https://i114.fastpic.ru/big/2021/0129/86/8b87ff18bff7d79bcf3cb85ddb842286.jpg Скачать, смотреть онлайн Порнолоджи, или Милашка как ты бесплантно в хорошем качестве Описание: Если парень обвинил тебя в слишком большой скованности в сексуальной жизни и даже закрепощенности, есть два варианта, как с ним ... 10 10 4
Торрент: Зарегистрирован [2021-01-29 03:40] · скачан: 21 раз
Статус: √ проверено
Размер: 25.4 GB
Как cкачать? Как скачать Порнолоджи, или Милашка как ты через торрент | UTorrent

% Раздел Тема Автор DL S | L
Фильмы 2019-2020 [DVDrip, WEB-DLRip, HDrip] (DUB, MVO) [ 1.42 GB ] Порнолоджи, или Милашка как ты / A Nice Girl Like You | Лицензия | BDRip Twi7ter Скачать
2 | 1
Фильмы 2019-2020 [DVDrip, WEB-DLRip, HDrip] (DUB, MVO) [ 2.04 GB ] Порнолоджи, или Милашка как ты / A Nice Girl Like You | iTunes | BDRip bober100 Скачать
1 | 0
Фильмы [HD 720p, 1080p] (Хороший звук DUB, MVO) [ 10.52 GB ] Порнолоджи, или Милашка как ты / A Nice Girl Like You | iTunes | 1080p bober100 Скачать
1 | 0
Фильмы [HD 720p, 1080p] (Хороший звук DUB, MVO) [ 5.27 GB ] Порнолоджи, или Милашка как ты / A Nice Girl Like You | iTunes | 720p bober100 Скачать
1 | 0
Фильмы 2019-2020 [DVDrip, WEB-DLRip, HDrip] (DUB, MVO) [ 746 MB ] Порнолоджи, или Милашка как ты / A Nice Girl Like You | iTunes | BDRip bober100 Скачать
2 | 0
Фильмы (WEB-DL 720p, 1080p) [ 5 GB ] Порнолоджи, или Милашка как ты / A Nice Girl Like You | iTunes | 1080p bober100 Скачать
1 | 0
Фильмы 2019-2020 [DVDrip, WEB-DLRip, HDrip] (DUB, MVO) [ 1.45 GB ] Порнолоджи, или Милашка как ты / A Nice Girl Like You | iTunes | DLRip-AVC Lithuania Скачать
1 | 0

28-11-2019 20:33  


Отключить вcю реклaмy на сайте, в т.ч. и в плеере онлайн просмотра!

    Дорогой пользователь! Огромная просьба, поблагодарите релизера, оцените раздачу и оставьте свои комментарий, если Вы скачали Порнолоджи, или Милашка как ты через торрент бесплатно!!
    Комментировать посты могут только пользователи прошедшие не сложную регистрацию
    Показать сообщения:    


    Порнолоджи, или Милашка как ты через торрент
    Скачать бесплатно Порнолоджи, или Милашка как ты
    Порнолоджи, или Милашка как ты скачать торрент
    Порнолоджи, или Милашка как ты смотреть онлайн
    Cкачать фильм Порнолоджи, или Милашка как ты бесплатно
    Порнолоджи, или Милашка как ты скачать торрент в хорошем качестве
    Порнолоджи, или Милашка как ты смотреть онлайн бесплатно в хорошем качестве
    Вы не можете начинать темы
    Вы не можете отвечать на сообщения
    Вы не можете редактировать свои сообщения
    Вы не можете удалять свои сообщения
    Вы не можете голосовать в опросах
    Вы не можете прикреплять файлы к сообщениям
    Вы можете скачивать файлы
    Порнолоджи, или Милашка как ты / A Nice Girl Like You [2020, Комедия, мелодрама, BD Remux 1080p] Дубляж [iTunes] смотреть онлайн, скачать торрент picoco.icu