Достать ножи: Стеклянная луковица

MVO

Добыча

Дубляж

Уэнсдэй

1 сезон

Тор

Дубляж

13 клиническая

1 сезон

Жестокая ночь

MVO

Одни из нас

1 сезон

Deluxe

pack

Рекомендуем

30

Пиратка

ВАЖНО

ВАЖНО

Ghostwire

Пиратка

jed

RePack

nioh2

RePack

RDR2

RePack

NEED FOR SPEED™ PAYBACK

RePack

скачать торрент

Кинопоиск HD

Острые козырьки 6 сезон

6 сезон

FAR CRY 6

RePack

скачать торрент

Лицензия

скачать торрент

MVO

1

1 сезон

скачать торрент

1 сезон

скачать торрент

Лицензия

  

Засланец из космоса / Местный пришелец / Resident Alien / Сезон: 1 / Серии: 1-10 из 10 (Шеннон Коли, Дженнифер Фанг, Дэвид Добкин) [2021, фантастика, драма, комедия, детектив, WEB-DL 1080p] 3xMVO [LostFilm,AlexFilm, NewStudio]

Засланец из космоса через торрент pb.wtf

Размер: 34.35 GB | Добавлен: 1 год 7 мес. назад | Торрент скачан:81 раз
Смотреть онлайн | Скачать | Поддержите нас   

29-01-2021 15:42 Засланец из космоса Скачать торрент  

Засланец из космоса | Местный пришелец | Resident Alien
«The sci-fi murder mystery doctor dramedy Earth needs now»
Год выпуска: 2021
Страна: США
Выпущено: Universal Cable Productions, Dark Horse Entertainment, Amblin Television
Жанр: фантастика, драма, комедия, детектив
Премьера (мир): 27 января 2021
Продолжительность: ~ 00:46:00 серия
Перевод:
- Профессиональный (многоголосый закадровый) |LostFilm|
- Профессиональный (многоголосый закадровый |AlexFilm|
- Профессиональный (многоголосый, закадровый) |NewStudio|
Субтитры: Русские (FOCS), английские (full)

Режиссер: Шеннон Коли, Дженнифер Фанг, Дэвид Добкин

rating

В ролях: Алан Тьюдик (Alan Tudyk), Сара Томко (Sara Tomko), Кори Рейнольдс (Corey Reynolds), Элис Веттерлунд (Alice Wetterlund), Леви Филер (Levi Fiehler), Элизабет Бауэн (Elizabeth Bowen), Мередит Аутри (Meredith Autry), Кэйлайла Рэйн (Kaylayla Raine), Манделл Мофан (Mandell Maughan), Гэри Фармер (Gary Farmer)

Описание: Доктор Гарри Вендершпигль — отшельник в небольшом городке в Колорадо. Ещё Вендершпигль — пришелец, который на самом деле упал на Землю и занял тело врача. Когда же доктора убивают, пришелец вынужден отложить миссию по возвращению домой и занять место убитого. Живя в новом теле, он постепенно начинает задаваться вопросами, стоят люди спасения или нет.

Качество: WEB-DL 1080p
Формат: MKV

Видео: AVC, 1920 x 1080 (1.778), 23.976 fps, ~6 982 kbps
Аудио Rus: AC-3, 48 kHz, 2 ch, 384 kbps |LostFilm|
Аудио Rus: AC-3, 48 kHz, 2 ch, 192 kbps |AlexFilm|
Аудио Rus: AC-3, 48 kHz, 2 ch, 192 kbps |NewStudio|
Аудио Rus: AC-3, 48 kHz, 6 ch, 384 kbps |NewStudio|
Аудио Eng: E-AC-3, 48 kHz, 6 ch, 640 kbps |Original|
скриншот  скриншот  скриншот  

скриншот  скриншот  скриншот  

Общее
Уникальный идентификатор : 70232512814265059176116438072411684249 (0x34D64A3A275A232243640B82150DFD99)
Полное имя : E:\_Сериалы\_Сериалы\Пришелец по соседству\Resident.Alien.S01.WEB-DL.1080p.Rus.Eng\Resident.Alien.s01e01.WEB-DL.1080p.RGzsRutracker.mkv
Формат : Matroska
Версия формата : Version 4
Размер файла : 2,72 Гбайт
Продолжительность : 46 м. 23 с.
Общий поток : 8 389 Кбит/сек
Дата кодирования : UTC 2021-02-08 14:19:20
Программа кодирования : mkvmerge v52.0.0 ('Secret For The Mad') 64-bit
Библиотека кодирования : libebml v1.4.1 + libmatroska v1.6.2

Видео
Идентификатор : 1
Формат : AVC
Формат/Информация : Advanced Video Codec
Профиль формата : [email protected]
Настройки формата : CABAC / 4 Ref Frames
Параметр CABAC формата : Да
Параметр RefFrames формата : 4 кадра
Идентификатор кодека : V_MPEG4/ISO/AVC
Продолжительность : 46 м. 22 с.
Вид битрейта : Постоянный
Битрейт : 6 982 Кбит/сек
Номинальный битрейт : 10 000 Кбит/сек
Ширина : 1 920 пикселей
Высота : 1 080 пикселей
Соотношение сторон : 16:9
Режим частоты кадров : Постоянный
Частота кадров : 23,976 (24000/1001) кадра/сек
Цветовое пространство : YUV
Субдискретизация насыщенности : 4:2:0
Битовая глубина : 8 бит
Тип развёртки : Прогрессивная
Бит/(Пиксели*Кадры) : 0.140
Размер потока : 2,26 Гбайт (83%)
Язык : English
Default : Да
Forced : Нет
Цветовой диапазон : Limited
Основные цвета : BT.709
Характеристики трансфера : BT.709
Коэффициенты матрицы : BT.709

Аудио #1
Идентификатор : 2
Формат : AC-3
Формат/Информация : Audio Coding 3
Коммерческое название : Dolby Digital
Идентификатор кодека : A_AC3
Продолжительность : 46 м. 22 с.
Вид битрейта : Постоянный
Битрейт : 384 Кбит/сек
Каналы : 2 канала
Channel layout : L R
Частота : 48,0 КГц
Частота кадров : 31,250 кадров/сек (1536 SPF)
Метод сжатия : С потерями
Размер потока : 127 Мбайт (5%)
Заголовок : LF
Язык : Russian
Service kind : Complete Main
Default : Да
Forced : Нет

Аудио #2
Идентификатор : 3
Формат : AC-3
Формат/Информация : Audio Coding 3
Коммерческое название : Dolby Digital
Идентификатор кодека : A_AC3
Продолжительность : 46 м. 23 с.
Вид битрейта : Постоянный
Битрейт : 192 Кбит/сек
Каналы : 2 канала
Channel layout : L R
Частота : 48,0 КГц
Частота кадров : 31,250 кадров/сек (1536 SPF)
Метод сжатия : С потерями
Размер потока : 63,7 Мбайт (2%)
Заголовок : AF
Язык : Russian
Service kind : Complete Main
Default : Нет
Forced : Нет

Аудио #3
Идентификатор : 4
Формат : AC-3
Формат/Информация : Audio Coding 3
Коммерческое название : Dolby Digital
Идентификатор кодека : A_AC3
Продолжительность : 46 м. 23 с.
Вид битрейта : Постоянный
Битрейт : 192 Кбит/сек
Каналы : 2 канала
Channel layout : L R
Частота : 48,0 КГц
Частота кадров : 31,250 кадров/сек (1536 SPF)
Метод сжатия : С потерями
Размер потока : 63,7 Мбайт (2%)
Заголовок : NS
Язык : Russian
Service kind : Complete Main
Default : Нет
Forced : Нет

Аудио #4
Идентификатор : 5
Формат : E-AC-3
Формат/Информация : Enhanced AC-3
Коммерческое название : Dolby Digital Plus
Идентификатор кодека : A_EAC3
Продолжительность : 46 м. 22 с.
Вид битрейта : Постоянный
Битрейт : 640 Кбит/сек
Каналы : 6 каналов
Channel layout : L R C LFE Ls Rs
Частота : 48,0 КГц
Частота кадров : 31,250 кадров/сек (1536 SPF)
Метод сжатия : С потерями
Размер потока : 212 Мбайт (8%)
Заголовок : Eng
Язык : English
Service kind : Complete Main
Default : Нет
Forced : Нет

Текст #1
Идентификатор : 6
Формат : UTF-8
Идентификатор кодека : S_TEXT/UTF8
Идентификатор кодека/Информация : UTF-8 Plain Text
Продолжительность : 46 м. 0 с.
Битрейт : 53 бит/сек
Count of elements : 590
Размер потока : 17,9 Кбайт (0%)
Заголовок : Eng
Язык : English
Default : Нет
Forced : Нет

Текст #2
Идентификатор : 7
Формат : UTF-8
Идентификатор кодека : S_TEXT/UTF8
Идентификатор кодека/Информация : UTF-8 Plain Text
Продолжительность : 46 м. 3 с.
Битрейт : 59 бит/сек
Count of elements : 684
Размер потока : 20,1 Кбайт (0%)
Заголовок : SDH
Язык : English
Default : Нет
Forced : Нет

Внимание! Раздача ведётся путём добавления новых серий; при каждом добавлении создаётся новый торрент.
Чтобы начать докачку новой серии, пользователям необходимо сделать следующее:
1. Остановить скачивание;
2. Удалить старый торрент у себя из клиента (старые серии удалять не надо);
3. Скачать новый торрент и запустить его у себя в клиенте вместо старого, при этом указать клиенту путь в старую папку куда и должно происходить скачивание новых серий. Ваш клиент при этом должен произвести хеширование (проверку) старой папки и будет докачивать только те серии, которых у вас ещё нет. Старые серии при этом не удаляются, а продолжают раздаваться! Eсли вы уже удалили старые серии, то предотвратить повторную закачку старых серий можно, отжав галочку в соответствующих местах при запуске нового торрента.




Скачать Засланец из космоса через торрент https://i4-imageban-ru.translate.goog/out/2021/01/29/2f377c7bb91c219359c188c011fd9e45.png Скачать, смотреть онлайн Засланец из космоса бесплантно в хорошем качестве Описание: Доктор Гарри Вендершпигль — отшельник в небольшом городке в Колорадо. Ещё Вендершпигль — пришелец, который на самом деле упал на ... 10 10 9
Торрент: Зарегистрирован [2021-06-09 03:46] · скачан: 81 раз
Статус: √ проверено
Размер: 34.35 GB
Как cкачать? Как скачать Засланец из космоса через торрент | UTorrent

% Раздел Тема Автор DL S | L
Зарубежные сериалы [ 18.05 GB ] Засланец из космоса / Resident Alien / Сезон: 2 / Серии 1-16 из 16 | LostFilm | DLRip-AVC GEKADOL Скачать
2 | 1
Зарубежные сериалы [ 5.42 GB ] Засланец из космоса / Местный пришелец / Resident Alien / Сезон: 1 / Серии: 1-10 из 10 | MVO | WEBRip bober100 Скачать
1 | 0
Зарубежные сериалы [ 31.83 GB ] Засланец из космоса / Местный пришелец / Resident Alien / Сезон: 1 / Серии: 1-10 из 10 | MVO | 1080p bober100 Скачать
1 | 0
Зарубежные сериалы [ 7.29 GB ] Засланец из космоса / Resident Alien / Сезон: 1 / Серии 1-10 из 10 | LostFilm | DLRip-AVC GEKADOL Скачать
3 | 0
Зарубежные сериалы [ 5.42 GB ] Засланец из космоса / Resident Alien / Сезон: 1 / Серии: 1-10 из 10 | MVO | WEBRip killermax2013 Скачать
2 | 0
Зарубежные сериалы [ 6.64 GB ] Засланец из космоса / Местный пришелец / Resident Alien / Сезон: 1 / Серии: 1-10 из 10 | MVO | DLRip bober100 Скачать
2 | 0
Зарубежные сериалы [ 32.04 GB ] Засланец из космоса / Местный пришелец / Resident Alien / Сезон: 1 / Серии: 1-10 из 10 | MVO | 1080p bober100 Скачать
1 | 0



Последний раз редактировалось: bober100 (2022-02-05 09:53), всего редактировалось 4 раз(а)

28-11-2019 20:33  


Отключить вcю реклaмy на сайте, в т.ч. и в плеере онлайн просмотра!

02-02-2021 05:51 Засланец из космоса Скачать торрент  

Не плохо, будем дальше посмотреть.



25-02-2021 13:49 Засланец из космоса Скачать торрент  

шикарный сериал..пришлось пересматривать между делом и смерть на похоронах.-уж больно прикольный мужичок играет.



    Дорогой пользователь! Огромная просьба, поблагодарите релизера, оцените раздачу и оставьте свои комментарий, если Вы скачали Засланец из космоса через торрент бесплатно!!
    Комментировать посты могут только пользователи прошедшие не сложную регистрацию
    Показать сообщения:    


    Засланец из космоса через торрент
    Скачать бесплатно Засланец из космоса
    Засланец из космоса скачать торрент
    Засланец из космоса смотреть онлайн
    Cкачать фильм Засланец из космоса бесплатно
    Засланец из космоса скачать торрент в хорошем качестве
    Засланец из космоса смотреть онлайн бесплатно в хорошем качестве
    Вы не можете начинать темы
    Вы не можете отвечать на сообщения
    Вы не можете редактировать свои сообщения
    Вы не можете удалять свои сообщения
    Вы не можете голосовать в опросах
    Вы не можете прикреплять файлы к сообщениям
    Вы можете скачивать файлы
    Засланец из космоса / Местный пришелец / Resident Alien / Сезон: 1 / Серии: 1-10 из 10 [2021, фантастика, драма, комедия, детектив, WEB-DL 1080p] 3xMVO [LostFilm,AlexFilm, NewStudio] смотреть онлайн, скачать торрент picoco.icu