Присоединяйтесь к нам в Telegram!, здесь всегда актуальный адрес сайта, оперативная поддержка и многое другое!!

>

5.9

iTunes

7.4

iTunes

9.4

1 сезон

1

7.4

2 сезон

7.2

iTunes

7.3

1 сезон

13

6.1

iTunes

8.3

Пиратка

30

ULTIMATE

pack

9.9

Лицензия

ВАЖНО

ИГРА 18+

pack

7.3

RePack

MK11

7.7

RePack

jed

7.8

RePack

fifa19

8.5

RePack

RDR2

RePack

NEED FOR SPEED™ PAYBACK

5 сезон

9 сезон

Бесстыжие 9 сезон

Все сериалы

все сериалы на PB.wtf

RePack

FAR CRY 5

Anonymous, доброй ночи, мы катастрофически не успеваем собрать деньги на оплату серверов, помогите нам пожалуйста 5,10,15р., для нас важна любая помощь . В качестве благодарности мы отключим Вам всю рекламу на сайте (укажите свой ник в строку Ваше имя)!

×
  
Magnet ссылка

Охана: В поисках сокровища / Finding 'Ohana (Джуд Вэн / Jude Weng) [2021, Боевик, комедия, приключения, семейный, WEB-DLRip-AVC] [DUB] [Netflix] от MediaBit pb.wtf

Охана: В поисках сокровища через торрент pb.wtf

Размер: 1.44 GB | Добавлен: 10 мес. назад | Торрент скачан:214 раз
Смотреть онлайн Охана: В поисках сокровища | Скачать    Ребята, помогите собрать деньги на оплату серверов!!!

29-01-2021 19:07 Охана: В поисках сокровища Скачать торрент  


Охана: В поисках сокровища / Finding Ohana
Информация о фильме:
Название: Охана: В поисках сокровища
Оригинальное название: Finding Ohana
Год выхода: 2021
Жанр: Боевик, комедия, приключения, семейный
Режиссер: Джуд Вэн

В ролях: Ке Хюи Куан, Келли Ху, Крис Парнелл, Оуэн Ваккаро, Марк Ивэн Джексон, Брэнском Ричмонд, Рики Гарсиа, Райан Хига, Икс Майо, Кайндра Санчес

Описание: Фильм рассказывает о брате и сестре из Бруклина, чье лето в сельском городке Оаху принимает захватывающий оборот, когда дневник, указывающий на давно потерянные сокровища, отправляет их в приключение, заставляя воссоединиться со своим Гавайским наследием.



Страна: США
Студия: Ian Bryce Productions
Продолжительность: 02:03:09
Перевод: Профессиональный (полное дублирование)) - SDI Media по заказу Netflix



Информация о файле:
Кодек: AVC
Формат: MKV
Качество: WEB-DLRip-AVC
Видео: MPEG-4 AVC, 1024x576, 24.000 fps, 1590kbps
Аудио RU: AAC-HE, 2 ch, 48 kHz, 96 kbps
Субтитры: Русские (Forced, full), английские
Навигация по главам: Нет

x264 info: frame I:1856 Avg QP:15.88 size: 72927
x264 info: frame P:39931 Avg QP:19.89 size: 17437
x264 info: frame B:135553 Avg QP:21.88 size: 4592
General
Unique ID : 230021202382654534986303000901336751160 (0xAD0C78DEE7DC208D83E4A163F9B4DC38)
Complete name : D:uTorrentРипы_от_wolf1245_MediaBitFinding Ohana.2021.DUB.[Netflix].WEB-DLRip-AVC_wolf1245_MediaBit..mkv
Format : Matroska
Format version : Version 4
File size : 1.44 GiB
Duration : 2 h 3 min
Overall bit rate : 1 672 kb/s
Movie name : Finding Ohana.2021.DUB.[Netflix].WEB-DLRip-AVC_wolf1245_MediaBit.
Encoded date : UTC 2021-01-29 18:52:52
Writing application : mkvmerge v52.0.0 ('Secret For The Mad') 64-bit
Writing library : libebml v1.4.1 + libmatroska v1.6.2
Video
ID : 1
Format : AVC
Format/Info : Advanced Video Codec
Format profile : High@L4.1
Format settings : CABAC / 12 Ref Frames
Format settings, CABAC : Yes
Format settings, Reference frames : 12 frames
Codec ID : V_MPEG4/ISO/AVC
Duration : 2 h 3 min
Bit rate : 1 590 kb/s
Width : 1 024 pixels
Height : 576 pixels
Display aspect ratio : 16:9
Frame rate mode : Constant
Frame rate : 24.000 FPS
Color space : YUV
Chroma subsampling : 4:2:0
Bit depth : 8 bits
Scan type : Progressive
Bits/(Pixel*Frame) : 0.112
Stream size : 1.35 GiB (94%)
Title : _wolf1245_MediaBit
Writing library : x264 core 157 r2958 57baac4
Encoding settings : cabac=1 / ref=12 / deblock=1:-3:-3 / analyse=0x3:0x133 / me=umh / subme=11 / psy=1 / psy_rd=1.05:0.05 / mixed_ref=1 / me_range=48 / chroma_me=1 / trellis=2 / 8x8dct=1 / cqm=0 / deadzone=21,11 / fast_pskip=0 / chroma_qp_offset=-3 / threads=10 / lookahead_threads=2 / sliced_threads=0 / nr=0 / decimate=0 / interlaced=0 / bluray_compat=0 / constrained_intra=0 / bframes=12 / b_pyramid=2 / b_adapt=2 / b_bias=0 / direct=3 / weightb=1 / open_gop=0 / weightp=2 / keyint=240 / keyint_min=24 / scenecut=40 / intra_refresh=0 / rc_lookahead=100 / rc=2pass / mbtree=0 / bitrate=1590 / ratetol=1.0 / qcomp=0.60 / qpmin=0 / qpmax=69 / qpstep=4 / cplxblur=20.0 / qblur=0.5 / vbv_maxrate=50000 / vbv_bufsize=62500 / nal_hrd=none / filler=0 / ip_ratio=1.40 / pb_ratio=1.30 / aq=1:0.80
Language : English
Default : Yes
Forced : No
Audio
ID : 2
Format : AAC LC SBR
Format/Info : Advanced Audio Codec Low Complexity with Spectral Band Replication
Commercial name : HE-AAC
Format settings : Implicit
Codec ID : A_AAC-2
Duration : 2 h 3 min
Bit rate : 96.0 kb/s
Channel(s) : 2 channels
Channel layout : L R
Sampling rate : 48.0 kHz
Frame rate : 23.438 FPS (2048 SPF)
Compression mode : Lossy
Stream size : 84.6 MiB (6%)
Title : DUB | Netflix
Language : Russian
Default : Yes
Forced : No
Text #1
ID : 3
Format : UTF-8
Codec ID : S_TEXT/UTF8
Codec ID/Info : UTF-8 Plain Text
Duration : 1 h 59 min
Bit rate : 3 b/s
Count of elements : 41
Stream size : 2.91 KiB (0%)
Title : Forced
Language : Russian
Default : No
Forced : No
Text #2
ID : 4
Format : UTF-8
Codec ID : S_TEXT/UTF8
Codec ID/Info : UTF-8 Plain Text
Duration : 1 h 59 min
Bit rate : 165 b/s
Count of elements : 1565
Stream size : 145 KiB (0%)
Title : Full
Language : Russian
Default : No
Forced : No
Text #3
ID : 5
Format : UTF-8
Codec ID : S_TEXT/UTF8
Codec ID/Info : UTF-8 Plain Text
Duration : 1 h 44 min
Bit rate : 0 b/s
Count of elements : 24
Stream size : 551 Bytes (0%)
Title : English [Forced]
Language : English
Default : No
Forced : No
Text #4
ID : 6
Format : UTF-8
Codec ID : S_TEXT/UTF8
Codec ID/Info : UTF-8 Plain Text
Duration : 1 h 59 min
Bit rate : 64 b/s
Count of elements : 1839
Stream size : 56.6 KiB (0%)
Title : English [SDH]
Language : English
Default : No
Forced : No
Релиз от: & &
pb.wtf



Скачать Охана: В поисках сокровища через торрент https://i114.fastpic.ru/big/2021/0129/a5/5849fcffcb4e75d0dca1d1ea485385a5.jpg Скачать, смотреть онлайн Охана: В поисках сокровища бесплантно в хорошем качестве Описание: Фильм рассказывает о брате и сестре из Бруклина, чье лето в сельском городке Оаху принимает захватывающий оборот, когда ... 9.9 10 10
Торрент: Зарегистрирован [2021-01-29 19:07] · скачан: 214 раз
Статус: T временная
Размер: 1.44 GB
Как cкачать? Как скачать Охана: В поисках сокровища через торрент | UTorrent

28-11-2019 20:33  

Отключить всю рекламу на сайте

    Дорогой пользователь! Огромная просьба, поблагодарите релизера, оцените раздачу и оставьте свои комментарий, если Вы скачали Охана: В поисках сокровища через торрент бесплатно!
    Комментировать посты могут только пользователи прошедшие не сложную регистрацию
    Показать сообщения:    

    Охана: В поисках сокровища через торрент
    Скачать бесплатно Охана: В поисках сокровища
    Охана: В поисках сокровища скачать торрент
    Охана: В поисках сокровища смотреть онлайн
    Cкачать фильм Охана: В поисках сокровища бесплатно
    Охана: В поисках сокровища скачать торрент в хорошем качестве
    Охана: В поисках сокровища смотреть онлайн бесплатно в хорошем качестве


    Вы не можете начинать темы
    Вы не можете отвечать на сообщения
    Вы не можете редактировать свои сообщения
    Вы не можете удалять свои сообщения
    Вы не можете голосовать в опросах
    Вы не можете прикреплять файлы к сообщениям
    Вы можете скачивать файлы