Всегда рабочее зеркало без VPN и Proxy просто перед .vidak.icu напиши любое слово или цифру, Пример http://6bdt.vidak.icu

MVO

2 сезон

1 сезон

1

1 сезон

iTunes

2 сезон

13

1 сезон

Распродажа

pack

Рекомендуем

Пиратка

30

ВАЖНО

RePack

MK11

RePack

jed

RePack

fifa19

RePack

RDR2

RePack

NEED FOR SPEED™ PAYBACK

Кинопоиск HD

6 сезон

 Острые козырьки 6 сезон

Все сериалы

все сериалы на PB.wtf

RePack

FAR CRY 5

Anonymous, нам критически не хватает 5601 руб. на оплату серверов и переферии за Апрель, помоги нам пожалуйста, вся надежда только на тебя. В благодарность мы отключим тебе всю рекламу на сайте!

×
  
Magnet ссылка

Детка в Роллс-Ройсе / Rolls-Royce Baby (Эрвин С. Дитрих) [1975 г., Эротика, комедия, BDRip-AVC, Авторский одноголосый Антон Алексеев] от ExKinoRay pb.wtf

Детка в Роллс-Ройсе через торрент pb.wtf

Размер: 2.16 GB | Добавлен: 1 год 3 мес. назад | Торрент скачан:75 раз
Смотреть онлайн Детка в Роллс-Ройсе | Скачать    Ребята, помогите собрать деньги на оплату серверов!!!

30-01-2021 17:25 Детка в Роллс-Ройсе Скачать торрент  

Детка в Роллс-Ройсе / Rolls-Royce Baby
Год выпуска: 1975
Страна: Швейцария
Жанр: Эротика, комедия
Продолжительность: 01:27:38
Перевод: Авторский одноголосый Дмитрий Есарев

Режиссер: Эрвин С. Дитрих

Премьера в мире: Декабрь 1975

rating

В ролях: Лина Ромай, Эрик Фальк, Урсула Мария Шефер, Роман Хубер, Кюрт Мейнике

Описание: Богатая нимфоманка после съемок в качестве модели часто ездит по окрестностям своей виллы на Роллс-Ройсе и подбирает попутчиков, чтобы прямо в машине заняться с ними сексом.

Качество: BDRip-AVC
Формат: MKV
Видео кодек: MPEG4
Аудио кодек: AC3
Видео: 2700 Кбит/с, 1024x576, 24.000 кадра/сек
Аудио#1: Русский (AC3, 2 ch, 192 Кбит/с, 48 КГц)
Аудио#2: Французский (AC3, 2 ch, 192 Кбит/с, 48 КГц)
Аудио#3: Немецкий (AC3, 6 ch, 448 Кбит/с, 48 КГц)

x264 [info]: profile High, level 4.1
x264 [info]: frame I:647 Avg QP:17.53 size: 78657
x264 [info]: frame P:22514 Avg QP:20.16 size: 26356
x264 [info]: frame B:103044 Avg QP:21.07 size: 10971
-----
Общее
Уникальный идентификатор : 175653116058897103647435277813974597308 (0x84258F4239CE918FA4D8F28AE9AC7EBC)
Полное имя : D:\Ray\Rolls-Royce.Baby.1975.BDRip-AVC.ExKinoRay.mkv
Формат : Matroska
Версия формата : Version 2
Размер файла : 2,16 Гбайт
Продолжительность : 1 ч. 27 м.
Общий поток : 3534 Кбит/сек
Дата кодирования : UTC 2021-01-30 15:50:53
Программа кодирования : mkvmerge v7.8.0 ('River Man') 32bit built on Apr 3 2015 12:11:22
Библиотека кодирования : libebml v1.3.1 + libmatroska v1.4.2

Видео
Идентификатор : 1
Формат : AVC
Формат/Информация : Advanced Video Codec
Профиль формата : High@L4.1
Настройки формата : CABAC / 12 Ref Frames
Параметр CABAC формата : Да
Параметр RefFrames формата : 12 кадров
Идентификатор кодека : V_MPEG4/ISO/AVC
Продолжительность : 1 ч. 27 м.
Битрейт : 2700 Кбит/сек
Ширина : 1024 пикселя
Высота : 576 пикселей
Соотношение сторон : 16:9
Режим частоты кадров : Постоянный
Частота кадров : 24,000 кадра/сек
Цветовое пространство : YUV
Субдискретизация насыщенности : 4:2:0
Битовая глубина : 8 бит
Тип развёртки : Прогрессивная
Бит/(Пиксели*Кадры) : 0.191
Размер потока : 1,61 Гбайт (74%)
Библиотека кодирования : x264 core 152 r2851 ba24899
Настройки программы : cabac=1 / ref=12 / deblock=1:-3:-2 / analyse=0x3:0x113 / me=umh / subme=10 / psy=1 / psy_rd=1.00:0.10 / mixed_ref=1 / me_range=32 / chroma_me=1 / trellis=2 / 8x8dct=1 / cqm=0 / deadzone=21,11 / fast_pskip=0 / chroma_qp_offset=-3 / threads=6 / lookahead_threads=1 / sliced_threads=0 / nr=0 / decimate=0 / interlaced=0 / bluray_compat=0 / constrained_intra=0 / bframes=14 / b_pyramid=2 / b_adapt=2 / b_bias=0 / direct=3 / weightb=1 / open_gop=0 / weightp=2 / keyint=240 / keyint_min=24 / scenecut=40 / intra_refresh=0 / rc=2pass / mbtree=0 / bitrate=2700 / ratetol=1.0 / qcomp=0.60 / qpmin=0 / qpmax=69 / qpstep=4 / cplxblur=20.0 / qblur=0.5 / ip_ratio=1.40 / pb_ratio=1.30 / aq=3:1.00
Язык : English
Default : Да
Forced : Нет
Цветовой диапазон : Limited
Основные цвета : BT.709
Характеристики трансфера : BT.709
Коэффициенты матрицы : BT.709

Аудио #1
Идентификатор : 2
Формат : AC-3
Формат/Информация : Audio Coding 3
Коммерческое название : Dolby Digital
Идентификатор кодека : A_AC3
Продолжительность : 1 ч. 27 м.
Вид битрейта : Постоянный
Битрейт : 192 Кбит/сек
Каналы : 2 канала
Channel layout : L R
Частота : 48,0 КГц
Частота кадров : 31,250 кадров/сек (1536 SPF)
Битовая глубина : 16 бит
Метод сжатия : С потерями
Размер потока : 120 Мбайт (5%)
Заголовок : Антон Алексеев
Язык : Russian
ServiceKind/String : Complete Main
Default : Да
Forced : Нет

Аудио #2
Идентификатор : 3
Формат : AC-3
Формат/Информация : Audio Coding 3
Коммерческое название : Dolby Digital
Идентификатор кодека : A_AC3
Продолжительность : 1 ч. 27 м.
Вид битрейта : Постоянный
Битрейт : 192 Кбит/сек
Каналы : 2 канала
Channel layout : L R
Частота : 48,0 КГц
Частота кадров : 31,250 кадров/сек (1536 SPF)
Битовая глубина : 16 бит
Метод сжатия : С потерями
Размер потока : 120 Мбайт (5%)
Язык : French
ServiceKind/String : Complete Main
Default : Нет
Forced : Нет

Аудио #3
Идентификатор : 4
Формат : AC-3
Формат/Информация : Audio Coding 3
Коммерческое название : Dolby Digital
Идентификатор кодека : A_AC3
Продолжительность : 1 ч. 27 м.
Вид битрейта : Постоянный
Битрейт : 448 Кбит/сек
Каналы : 6 каналов
Channel layout : L R C LFE Ls Rs
Частота : 48,0 КГц
Частота кадров : 31,250 кадров/сек (1536 SPF)
Битовая глубина : 16 бит
Метод сжатия : С потерями
Размер потока : 281 Мбайт (13%)
Язык : German
ServiceKind/String : Complete Main
Default : Нет
Forced : Нет

pb.wtf



Скачать Детка в Роллс-Ройсе через торрент http://i70.fastpic.ru/big/2015/0525/2b/5428ada914a50884de0c21483338692b.jpg Скачать, смотреть онлайн Детка в Роллс-Ройсе бесплантно в хорошем качестве Описание: Богатая нимфоманка после съемок в качестве модели часто ездит по окрестностям своей виллы на Роллс-Ройсе и подбирает попутчиков, ... 10 10 3
Info! Золотая раздача, скачанное не засчитывается.
Торрент: Зарегистрирован [2021-01-30 17:25] · скачан: 75 раз
Статус: √ проверено
Размер: 2.16 GB
Как cкачать? Как скачать Детка в Роллс-Ройсе через торрент | UTorrent

28-11-2019 20:33  

Отключить всю рекламу на сайте

31-01-2021 05:29 Детка в Роллс-Ройсе Скачать торрент  

Топик был перенесен из форума Оформление раздач (Кино, Видео и ТВ) в форум Фильмы с авторской озвучкой


Enigma2010pb.wtf



    Дорогой пользователь! Огромная просьба, поблагодарите релизера, оцените раздачу и оставьте свои комментарий, если Вы скачали Детка в Роллс-Ройсе через торрент бесплатно!
    Комментировать посты могут только пользователи прошедшие не сложную регистрацию
    Показать сообщения:    

    Детка в Роллс-Ройсе через торрент
    Скачать бесплатно Детка в Роллс-Ройсе
    Детка в Роллс-Ройсе скачать торрент
    Детка в Роллс-Ройсе смотреть онлайн
    Cкачать фильм Детка в Роллс-Ройсе бесплатно
    Детка в Роллс-Ройсе скачать торрент в хорошем качестве
    Детка в Роллс-Ройсе смотреть онлайн бесплатно в хорошем качестве


    Вы не можете начинать темы
    Вы не можете отвечать на сообщения
    Вы не можете редактировать свои сообщения
    Вы не можете удалять свои сообщения
    Вы не можете голосовать в опросах
    Вы не можете прикреплять файлы к сообщениям
    Вы можете скачивать файлы