Достать ножи: Стеклянная луковица

MVO

Добыча

Дубляж

Уэнсдэй

1 сезон

Тор

Дубляж

13 клиническая

1 сезон

Жестокая ночь

MVO

Одни из нас

1 сезон

Deluxe

pack

Рекомендуем

30

Пиратка

ВАЖНО

ВАЖНО

Ghostwire

Пиратка

jed

RePack

nioh2

RePack

RDR2

RePack

NEED FOR SPEED™ PAYBACK

RePack

скачать торрент

Кинопоиск HD

Острые козырьки 6 сезон

6 сезон

FAR CRY 6

RePack

скачать торрент

Лицензия

скачать торрент

MVO

1

1 сезон

скачать торрент

1 сезон

скачать торрент

Лицензия

  

Засланец из космоса / Местный пришелец / Resident Alien / Сезон: 1 / Серии: 1-10 из 10 (Шеннон Коли, Дженнифер Фанг, Дэвид Добкин) [2021, фантастика, драма, комедия, детектив, WEB-DLRip] MVO [Lostfilm]

Засланец из космоса через торрент pb.wtf

Размер: 6.64 GB | Добавлен: 1 год 7 мес. назад | Торрент скачан:197 раз
Смотреть онлайн | Скачать | Поддержите нас   

31-01-2021 03:20 Засланец из космоса Скачать торрент  

Засланец из космоса | Местный пришелец | Resident Alien
«The sci-fi murder mystery doctor dramedy Earth needs now»
Год выпуска: 2021
Страна: США
Выпущено: Universal Cable Productions, Dark Horse Entertainment, Amblin Television
Жанр: фантастика, драма, комедия, детектив
Премьера (мир): 27 января 2021
Продолжительность: ~ 00:46:00 серия
Перевод: Профессиональный (многоголосый закадровый) | LostFilm
Субтитры: отсутствуют

Режиссер: Шеннон Коли, Дженнифер Фанг, Дэвид Добкин

rating

В ролях: Алан Тьюдик (Alan Tudyk), Сара Томко (Sara Tomko), Кори Рейнольдс (Corey Reynolds), Элис Веттерлунд (Alice Wetterlund), Леви Филер (Levi Fiehler), Элизабет Бауэн (Elizabeth Bowen), Мередит Аутри (Meredith Autry), Кэйлайла Рэйн (Kaylayla Raine), Манделл Мофан (Mandell Maughan), Гэри Фармер (Gary Farmer)

Описание: Доктор Гарри Вендершпигль — отшельник в небольшом городке в Колорадо. Ещё Вендершпигль — пришелец, который на самом деле упал на Землю и занял тело врача. Когда же доктора убивают, пришелец вынужден отложить миссию по возвращению домой и занять место убитого. Живя в новом теле, он постепенно начинает задаваться вопросами, стоят люди спасения или нет.

Качество: WEB-DLRip
Формат: AVI

Видео: XviD, 720x400 (16:9), 23.976 fps, ~ 1700 Kbps
Аудио Rus: AC3, 48.0 KHz, 2 ch, 192 kbps [Rus]
Аудио Eng: AC3, 48.0 KHz, 2 ch, 192 kbps [Eng]
скриншот  скриншот  скриншот  скриншот  

Общее
Полное имя : E:\Resident.Alien.S01.WEB-DLRip.LF\Resident.Alien.S01E01.avi
Формат : AVI
Формат/Информация : Audio Video Interleave
Размер файла : 696 Мбайт
Продолжительность : 46 м. 22 с.
Общий поток : 2098 Кбит/сек
Программа кодирования : VirtualDubMod 1.5.10.3 (build 2550/release)
Библиотека кодирования : VirtualDubMod build 2550/release

Видео
Идентификатор : 0
Формат : MPEG-4 Visual
Профиль формата : Advanced [email protected]
Настройки формата : BVOP1
Параметр BVOP формата : 1
Параметр QPel формата : Нет
Параметр GMC формата : Без точки перехода
Параметр матрицы формата : Default (MPEG)
Идентификатор кодека : XVID
Идентификатор кодека/Подсказка : XviD
Продолжительность : 46 м. 22 с.
Битрейт : 1700 Кбит/сек
Ширина : 720 пикселей
Высота : 400 пикселей
Соотношение сторон : 16:9
Частота кадров : 23,976 (24000/1001) кадра/сек
Цветовое пространство : YUV
Субдискретизация насыщенности : 4:2:0
Битовая глубина : 8 бит
Тип развёртки : Прогрессивная
Метод сжатия : С потерями
Бит/(Пиксели*Кадры) : 0.246
Размер потока : 564 Мбайт (81%)
Библиотека кодирования : XviD 67

Аудио #1
Идентификатор : 1
Формат : AC-3
Формат/Информация : Audio Coding 3
Коммерческое название : Dolby Digital
Идентификатор кодека : 2000
Продолжительность : 46 м. 22 с.
Вид битрейта : Постоянный
Битрейт : 192 Кбит/сек
Каналы : 2 канала
ChannelLayout : L R
Частота : 48,0 КГц
Частота кадров : 31,250 кадров/сек (1536 SPF)
Метод сжатия : С потерями
Размер потока : 63,7 Мбайт (9%)
Выравнивание : Разделение по промежуткам
Продолжительность промежутка : 42 мс. (1,00 видеокадр)
Время предзагрузки промежутка : 500 мс.
ServiceKind/String : Complete Main

Аудио #2
Идентификатор : 2
Формат : AC-3
Формат/Информация : Audio Coding 3
Коммерческое название : Dolby Digital
Идентификатор кодека : 2000
Продолжительность : 46 м. 22 с.
Вид битрейта : Постоянный
Битрейт : 192 Кбит/сек
Каналы : 2 канала
ChannelLayout : L R
Частота : 48,0 КГц
Частота кадров : 31,250 кадров/сек (1536 SPF)
Метод сжатия : С потерями
Размер потока : 63,7 Мбайт (9%)
Выравнивание : Разделение по промежуткам
Продолжительность промежутка : 42 мс. (1,00 видеокадр)
Время предзагрузки промежутка : 500 мс.
ServiceKind/String : Complete Main

Внимание! Раздача ведётся путём добавления новых серий; при каждом добавлении создаётся новый торрент.
Чтобы начать докачку новой серии, пользователям необходимо сделать следующее:
1. Остановить скачивание;
2. Удалить старый торрент у себя из клиента (старые серии удалять не надо);
3. Скачать новый торрент и запустить его у себя в клиенте вместо старого, при этом указать клиенту путь в старую папку куда и должно происходить скачивание новых серий. Ваш клиент при этом должен произвести хеширование (проверку) старой папки и будет докачивать только те серии, которых у вас ещё нет. Старые серии при этом не удаляются, а продолжают раздаваться! Eсли вы уже удалили старые серии, то предотвратить повторную закачку старых серий можно, отжав галочку в соответствующих местах при запуске нового торрента.




Скачать Засланец из космоса через торрент https://i4-imageban-ru.translate.goog/out/2021/01/29/2f377c7bb91c219359c188c011fd9e45.png Скачать, смотреть онлайн Засланец из космоса бесплантно в хорошем качестве Описание: Доктор Гарри Вендершпигль — отшельник в небольшом городке в Колорадо. Ещё Вендершпигль — пришелец, который на самом деле упал на ... 10 10 15
Торрент: Зарегистрирован [2021-06-09 03:44] · скачан: 197 раз
Статус: √ проверено
Размер: 6.64 GB
Как cкачать? Как скачать Засланец из космоса через торрент | UTorrent

% Раздел Тема Автор DL S | L
Зарубежные сериалы [ 18.05 GB ] Засланец из космоса / Resident Alien / Сезон: 2 / Серии 1-16 из 16 | LostFilm | DLRip-AVC GEKADOL Скачать
2 | 0
Зарубежные сериалы [ 5.42 GB ] Засланец из космоса / Местный пришелец / Resident Alien / Сезон: 1 / Серии: 1-10 из 10 | MVO | WEBRip bober100 Скачать
1 | 0
Зарубежные сериалы [ 31.83 GB ] Засланец из космоса / Местный пришелец / Resident Alien / Сезон: 1 / Серии: 1-10 из 10 | MVO | 1080p bober100 Скачать
1 | 0
Зарубежные сериалы [ 7.29 GB ] Засланец из космоса / Resident Alien / Сезон: 1 / Серии 1-10 из 10 | LostFilm | DLRip-AVC GEKADOL Скачать
3 | 0
Зарубежные сериалы [ 5.42 GB ] Засланец из космоса / Resident Alien / Сезон: 1 / Серии: 1-10 из 10 | MVO | WEBRip killermax2013 Скачать
2 | 0
Зарубежные сериалы [ 32.04 GB ] Засланец из космоса / Местный пришелец / Resident Alien / Сезон: 1 / Серии: 1-10 из 10 | MVO | 1080p bober100 Скачать
1 | 0
Зарубежные сериалы [ 34.35 GB ] Засланец из космоса / Местный пришелец / Resident Alien / Сезон: 1 / Серии: 1-10 из 10 | LostFilm | 1080p bober100 Скачать
2 | 0



Последний раз редактировалось: bober100 (2021-06-09 03:44), всего редактировалось 1 раз

28-11-2019 20:33  


Отключить вcю реклaмy на сайте, в т.ч. и в плеере онлайн просмотра!

02-04-2021 15:11 Засланец из космоса Скачать торрент  

А что последней серии (кина) не будет?



04-04-2021 05:06 Засланец из космоса Скачать торрент  

Дружище,последнюю серию от Лоста в 1080



    Дорогой пользователь! Огромная просьба, поблагодарите релизера, оцените раздачу и оставьте свои комментарий, если Вы скачали Засланец из космоса через торрент бесплатно!!
    Комментировать посты могут только пользователи прошедшие не сложную регистрацию
    Показать сообщения:    


    Засланец из космоса через торрент
    Скачать бесплатно Засланец из космоса
    Засланец из космоса скачать торрент
    Засланец из космоса смотреть онлайн
    Cкачать фильм Засланец из космоса бесплатно
    Засланец из космоса скачать торрент в хорошем качестве
    Засланец из космоса смотреть онлайн бесплатно в хорошем качестве
    Вы не можете начинать темы
    Вы не можете отвечать на сообщения
    Вы не можете редактировать свои сообщения
    Вы не можете удалять свои сообщения
    Вы не можете голосовать в опросах
    Вы не можете прикреплять файлы к сообщениям
    Вы можете скачивать файлы
    Засланец из космоса / Местный пришелец / Resident Alien / Сезон: 1 / Серии: 1-10 из 10 [2021, фантастика, драма, комедия, детектив, WEB-DLRip] MVO [Lostfilm] смотреть онлайн, скачать торрент picoco.icu