2 сезон

iTunes

WEBRip

1

2 сезон

iTunes

1 сезон

1 сезон

RePack

30

Новинка

ВАЖНО

ИГРА 18+

pack

RePack

MK11
pack

Легкие деньги

RePack

jed

RePack

fifa19

RePack

RDR2

RePack

NEED FOR SPEED™ PAYBACK

4 сезон

9 сезон

Бесстыжие 9 сезон

Все сериалы

все сериалы на PB.wtf

RePack

FAR CRY 5

Anonymous, добрый вечер, мы не успеваем собрать деньги на оплату серверов за февраль, помогите нам пожалуйста в это трудное время. В качестве благодарности мы отключим Вам всю рекламу на сайте (укажите свой ник в строку Ваше имя)!

×
  
Magnet ссылка

Дьявол в деталях / The Little Things (Джон Ли Хэнкок) [2021 г., Триллер, детектив, WEB-DL 1080p] [DUB] [Line] pb.wtf

Дьявол в деталях через торрент pb.wtf

Раздают: 56 [ 32 KB/s ] Качают: 1 [ 0 KB/s ]
Размер: 6.72 GB | Добавлен: 1 мес. 8 д. назад | Торрент скачан:1103 раза
Скачать  

31-01-2021 08:40 Дьявол в деталях Скачать торрент  

Дьявол в деталях / The Little Things
«Есть вещи, которые невозможно забыть»

Год выхода: 2021
Страна: США
Жанр: детектив, криминал, триллер
Продолжительность: 02:08:49
Перевод: Дублированный [Line]
Режиссер: Джон Ли Хэнкок / John Lee Hancock
В ролях: Дензел Вашингтон, Рами Малек, Джаред Лето, Кристофер Бауэр, Майкл Хайатт, Терри Кинни, Натали Моралес, Изабель Арраиса, Джорис Джарски, Гленн Моршауэр
О фильме:
Заместителя шерифа округа Керн Джо Дикона по прозвищу Дики отправляют в Лос-Анджелес – обычная командировка для сбора улик. Но там его привлекают к поискам серийного убийцы, который терроризирует город. Охоту на маньяка возглавляет Джим Бэкстер, сержант департамента шерифа Лос-Анджелеса. Его впечатляет полицейское чутье Дики, и он неофициально привлекает его к расследованию. Они всё ближе к цели, но Бэкстер не догадывается, что тем самым они воскрешают призраков прошлого Дики, раскрывая такие тайны, которые могут всколыхнуть куда более темные воды, чем его нынешнее дело.

rating
скриншот  

Качество: WEB-DL 1080p
Формат: MKV
Видео: AVC, 1920x804 (2.40:1), 23.976 fps, 7 088 kb/s (0.192 bit/pixel)
Аудио: AAC. 48.0 KHz, 2 ch, 384 Kbps Russian | Чистый звук

скриншот  скриншот  скриншот  
The.Little.Things.2021.D.WEB-DL.1O8Op.mkv
Format : Matroska
Format version : Version 2
File size : 6.72 GiB
Duration : 2 h 8 min
Overall bit rate mode : Variable
Overall bit rate : 7 472 kb/s
Encoded date : UTC 2021-01-29 17:32:35
Writing application : mkvmerge v8.3.0 ('Over the Horizon') 64bit
Writing library : libebml v1.3.1 + libmatroska v1.4.2

Video
ID : 1
Format : AVC
Format/Info : Advanced Video Codec
Format profile : High@L4.1
Format settings : CABAC / 4 Ref Frames
Format settings, CABAC : Yes
Format settings, ReFrames : 4 frames
Codec ID : V_MPEG4/ISO/AVC
Duration : 2 h 8 min
Bit rate mode : Variable
Bit rate : 7 088 kb/s
Nominal bit rate : 8 000 kb/s
Maximum bit rate : 8 000 kb/s
Width : 1 920 pixels
Height : 804 pixels
Display aspect ratio : 2.40:1
Frame rate mode : Constant
Frame rate : 23.976 (24000/1001) FPS
Standard : Component
Color space : YUV
Chroma subsampling : 4:2:0
Bit depth : 8 bits
Scan type : Progressive
Bits/(Pixel*Frame) : 0.192
Stream size : 6.38 GiB (95%)
Writing library : x264 core 155
Encoding settings : cabac=1 / ref=4 / deblock=1:0:0 / analyse=0x3:0x3 / me=dia / subme=1 / psy=1 / psy_rd=1.00:0.00 / mixed_ref=0 / me_range=16 / chroma_me=1 / trellis=0 / 8x8dct=1 / cqm=1 / deadzone=21,11 / fast_pskip=1 / chroma_qp_offset=0 / threads=25 / lookahead_threads=4 / sliced_threads=0 / slices=1 / nr=0 / decimate=1 / interlaced=0 / minigop=0 / stitchable=1 / constrained_intra=0 / bframes=2 / b_pyramid=0 / b_adapt=0 / b_bias=0 / direct=1 / weightb=1 / open_gop=1 / weightp=0 / keyint=240 / keyint_min=23 / scenecut=40 / intra_refresh=0 / rc_lookahead=0 / rc=cbr / mbtree=0 / bitrate=8000 / ratetol=1.0 / qcomp=0.60 / qpmin=1 / qpmax=69 / qpstep=4 / vbv_maxrate=8000 / vbv_bufsize=8000 / nal_hrd=vbr / filler=0 / ip_ratio=1.40 / pb_ratio=1.30 / aq=1:1.00
Default : Yes
Forced : No
Color range : Limited
Color primaries : BT.709
Transfer characteristics : BT.709
Matrix coefficients : BT.709

Audio
ID : 2
Format : AAC
Format/Info : Advanced Audio Codec
Format profile : Main
Codec ID : A_AAC-1
Duration : 2 h 8 min
Bit rate : 384 kb/s
Channel(s) : 2 channels
Channel positions : Front: L R
Sampling rate : 48.0 kHz
Frame rate : 46.875 FPS (1024 SPF)
Compression mode : Lossy
Stream size : 351 MiB (5%)
Default : Yes
Forced : No

pb.wtf
Kkillermax2013 писал(а):

Внимание!!! Аудио: AAC не воспроизводится на древних телевизорах !



Скачать Дьявол в деталях через торрент https://d.radikal.ru/d12/2101/08/fc6fa6c062a4.jpg Скачать фильм Дьявол в деталях через торрент бесплантно в хорошем качестве О фильме:Заместителя шерифа округа Керн Джо Дикона по прозвищу Дики отправляют в Лос-Анджелес – обычная командировка для сбора улик. Но там ... 10 10 29
Торрент: Зарегистрирован [2021-01-31 08:40] · скачан: 1 103 раз
Статус: T временная
Размер: 6.72 GB
Как cкачать? Как скачать Дьявол в деталях через торрент | UTorrent

% Раздел Тема Автор DL S | L
Фильмы 2021 [DVDrip, WEB-DLRip, HDrip] (DUB, MVO) [ 3 GB ] Дьявол в деталях / The Little Things [2021 WEB-DLRip-AVC] killermax2013 Скачать
19 | 1
Фильмы (WEB-DL 720p, 1080p) [ 9.4 GB ] Дьявол в деталях / The Little Things [2021 WEB-DL 1080p] MVO [HDRezka Studio] +VO [В.Данилов] bober100 Скачать
28 | 0
Фильмы 2021 [DVDrip, WEB-DLRip, HDrip] (DUB, MVO) [ 2.18 GB ] Дьявол в деталях / The Little Things [2021 WEB-DLRip] MVO [HDRezka Studio] bober100 Скачать
62 | 1
Ultra HD (UHD: 2K, 4K, 8K) — видео сверхвысокой чёткости [ 17.71 GB ] Дьявол в деталях / The Little Things [2021 WEB-DL 2160p] MVO [HDRezka Studio] +VO [В.Данилов] bober100 Скачать
24 | 0
T Фильмы 2021 (Звук TS, Cam, VO, DVO) [ 1.45 GB ] Дьявол в деталях / The Little Things [2021 WEB-DLRip-AVC] [VO] [Владислав Данилов] от MediaBit Lithuania Скачать
13 | 1

28-11-2019 20:33  

Отключить всю рекламу на сайте


31-01-2021 14:03 Дьявол в деталях Скачать торрент  

Джарет похож на Михалкова Н.pb.wtf
Kkillermax2013 писал(а):

может наоборот ?



31-01-2021 18:28 Дьявол в деталях Скачать торрент  

звука нетpb.wtf
Kkillermax2013 писал(а):

Описание читаем или главное скачать ? Внимание!!! Аудио: AAC не воспроизводится на древних телевизорах !



01-02-2021 07:02 Дьявол в деталях Скачать торрент  

Фильм посмотрел. не понял но очень интересно.pb.wtf



01-02-2021 13:46 Дьявол в деталях Скачать торрент  

Ждал фильм....посмотрел....не то что ждал....думал будут расследования, интриги, улики, раздумия....а там лопата просто....pb.wtf



09-02-2021 12:26 Дьявол в деталях Скачать торрент  

на разок потянет. на общем фоне неплохой фильм.pb.wtf



12-02-2021 07:50 Дьявол в деталях Скачать торрент  

отлично засыпается!рекомендуюpb.wtf



17-02-2021 15:29 Дьявол в деталях Скачать торрент  

iraquid писал(а):

Ждал фильм....посмотрел....не то что ждал....думал будут расследования, интриги, улики, раздумия....а там лопата просто....

Точняк, фильм про лопату!
Смысла в фильме ноль. Больше похож на нечто проходное либо для занятия времени между съемками в нормальных фильмах..
Рейтинг явно насосан pb.wtf



    Дорогой пользователь! Огромная просьба, поблагодарите релизера, оцените раздачу и оставьте свои комментарий, если Вы скачали Дьявол в деталях через торрент бесплатно! Внесите свою лепту в развитие PiratBit!
    Комментировать посты могут только пользователи прошедшие не сложную регистрацию
    Показать сообщения:    

    Дьявол в деталях через торрент
    Скачать бесплатно Дьявол в деталях
    Дьявол в деталях скачать торрент
    Дьявол в деталях смотреть онлайн
    Cкачать фильм Дьявол в деталях бесплатно
    Дьявол в деталях скачать торрент в хорошем качестве
    Дьявол в деталях смотреть онлайн бесплатно в хорошем качестве


    Вы не можете начинать темы
    Вы не можете отвечать на сообщения
    Вы не можете редактировать свои сообщения
    Вы не можете удалять свои сообщения
    Вы не можете голосовать в опросах
    Вы не можете прикреплять файлы к сообщениям
    Вы можете скачивать файлы