Anonymous, доброй ночи, присоединяйтесь к нам в Telegram!, здесь всегда актуальный адрес сайта, оперативная поддержка и многое другое!

>

5.6

iTunes

7.4

iTunes

7.9

MVO

1

7.7

1 сезон

6.8

iTunes

7.3

1 сезон

13

6.7

1 сезон

8.3

RePack

30

ULTIMATE

pack

9.9

Лицензия

ВАЖНО

ИГРА 18+

pack

7.3

RePack

MK11

7.7

RePack

jed

7.8

RePack

fifa19

8.5

RePack

RDR2

RePack

NEED FOR SPEED™ PAYBACK

4 сезон

9 сезон

Бесстыжие 9 сезон

Все сериалы

все сериалы на PB.wtf

RePack

FAR CRY 5

Anonymous, доброй ночи, мы катастрофически не успеваем собрать деньги на оплату серверов, помогите нам пожалуйста 5,10,15р., для нас важна любая помощь . В качестве благодарности мы отключим Вам всю рекламу на сайте (укажите свой ник в строку Ваше имя)!

×
  
Magnet ссылка

Отпуск / Сезон: 1 / Серии: 1-19 из 19 (Александр Бойков) [2021, Комедия, SATRip] pb.wtf

Отпуск через торрент pb.wtf

Раздают: 1 [ 0 KB/s ] Качают: 2 [ 0 KB/s ]
Размер: 6.28 GB | Добавлен: 7 мес. назад | Торрент скачан:163 раза
Смотреть онлайн Отпуск | Скачать    Ребята, помогите собрать деньги на оплату серверов!!!

02-02-2021 11:18 Отпуск Скачать торрент  

Отпуск
Год выпуска: 2021
Страна: Россия
Выпущено: 123 Продакшн, Телеканал ТНТ
Жанр: Комедия
Продолжительность: ~ 00:25:00 серия
Перевод: Не требуется
Субтитры: отсутствуют

Режиссер: Александр Бойков



В ролях: Демис Карибидис, Павел Майков, Юлия Подозёрова, Кузьма Сапрыкин, Татьяна Догилева, Катрин Асси, Валентина Карнаухова, Арарат Кещян, Святослав Королев, Радислав Куцов, Сергей Епишев, Александр Волохов (II), Альбина Кабалина, Максим Винокуров, Амир Гурбанов, Денис Доронин, Елена Пономарёва, Владимир Паршенков, Виталий Гумеров, Артур Павленко, Кристина Арабина, Юлия Кубина, Алексей Бухтояров, Владимир Глушков (II)

Описание: Северяне Беляевы 11-й год подряд приезжают в Геленджик. Но этот отпуск не будет похож на остальные. Для главы семейства Севы это последний шанс спасти брак и доказать супруге, что он хороший отец и муж. Их сын Саша собирается сделать предложение Люсе — дочери дяди Бори, владельца гостевого дома, где остановились Беляевы. Дядя Боря вовсе не замечает северян, ведь у него свои проблемы — новая любовь, красавица Мадина, и ее ревнивый бывший — влиятельный бизнесмен Таймураз, который не готов отпустить Мадину. Это история двух семей, в каждой из которых люди борются за любовь.

Качество: SATRip
Формат: AVI

Видео: XviD, ~ 1700 Кбит/с, 720x304
Аудио: MP3, 2 ch, 192 Кбит/с
скриншот  скриншот  скриншот  скриншот  

Общее
Полное имя : C:\Отпуск.2021.XviD.7turza™\01.Отпуск.7turza™.avi
Формат : AVI
Формат/Информация : Audio Video Interleave
Размер файла : 333 Мбайт
Продолжительность : 24 м. 35 с.
Общий поток : 1892 Кбит/сек
Название фильма : S01 E01 # from 7turza #
Программа кодирования : Lavf58.45.100

Видео
Идентификатор : 0
Формат : MPEG-4 Visual
Профиль формата : Advanced Simple@L5
Настройки формата : BVOP1
Параметр BVOP формата : 1
Параметр QPel формата : Нет
Параметр GMC формата : Без точки перехода
Параметр матрицы формата : Default (H.263)
Идентификатор кодека : XVID
Идентификатор кодека/Подсказка : XviD
Продолжительность : 24 м. 35 с.
Битрейт : 1616 Кбит/сек
Ширина : 720 пикселей
Высота : 304 пикселя
Соотношение сторон : 2,40:1
Частота кадров : 25,000 кадров/сек
Цветовое пространство : YUV
Субдискретизация насыщенности : 4:2:0
Битовая глубина : 8 бит
Тип развёртки : Прогрессивная
Метод сжатия : С потерями
Бит/(Пиксели*Кадры) : 0.295
Размер потока : 284 Мбайт (85%)
Библиотека кодирования : XviD 69

Аудио
Идентификатор : 1
Формат : MPEG Audio
Версия формата : Version 1
Профиль формата : Layer 3
Настройки формата : Joint stereo
Идентификатор кодека : 55
Идентификатор кодека/Подсказка : MP3
Продолжительность : 24 м. 35 с.
Вид битрейта : Постоянный
Битрейт : 192 Кбит/сек
Каналы : 2 канала
Частота : 48,0 КГц
Метод сжатия : С потерями
Размер потока : 33,8 Мбайт (10%)
Выравнивание : Соединение по промежуткам
Библиотека кодирования : LAME3.100U

Когда раздача ведётся путём добавления новых серий, при каждом добавлении создётся новый торрент. Чтобы начать докачку новой серии, пользователям необходимо сделать следующее:
(1) остановить скачивание,
(2) удалить старый торрент у себя из клиента (старые серии удалять не надо),
(3) скачать новый торрент и запустить его у себя в клиенте вместо старого, при этом указать клиенту путь в старую папку, куда и должно происходить скачивание новых серий.
Ваш клиент при этом должен произвести хеширование (проверку) старой папки (если не производит сам - помогите ему сделать это), и будет докачивать только те серии, которых у вас ещё нет. Старые серии при этом не удаляются, а продолжают раздаваться!
Eсли вы уже удалили старые серии, то предотвратить повторную закачку старых серий можно, отжав галочку в соответсвующих местах при запуске нового торрента. По возможности, желательно не удалять старые серии как можно дольше, чтобы релизёр не столько продолжал раздавать старые серии, а смог сконцентрироваться на новых.
pb.wtf



Скачать Отпуск через торрент https://i114.fastpic.ru/big/2021/0201/b3/d14750020410d9842419ca32144053b3.jpg Скачать, смотреть онлайн Отпуск бесплантно в хорошем качестве Описание: Северяне Беляевы 11-й год подряд приезжают в Геленджик. Но этот отпуск не будет похож на остальные. Для главы семейства Севы это ... 10 10 27
Info! Серебряная раздача, засчитывается только 50% скачанного.
Торрент: Зарегистрирован [2021-03-04 13:45] · скачан: 163 раз
Статус: √ проверено
Размер: 6.28 GB
Как cкачать? Как скачать Отпуск через торрент | UTorrent

% Раздел Тема Автор DL S | L
TNT serials [ 22.96 GB ] Отпуск / Сезон: 1 / Серии: 1-19 из 19 [2021 HDTV 1080i] bober100 Скачать
3 | 0
TNT serials [ 17.37 GB ] Отпуск / Сезон: 1 / Серии: 1-19 из 19 + Фильм о фильме [2021 WEBRip 1080p ] bober100 Скачать
3 | 1
TNT serials [ 11.81 GB ] Отпуск / Сезон: 1 / Серии: 1-19 из 19 + Фильм о фильме [2021 WEBRip 720p ] bober100 Скачать
6 | 1
TNT serials [ 6.84 GB ] Отпуск / Сезон: 1 / Серии: 1-19 из 19 + Фильм о фильме [2021 WEBRip ] bober100 Скачать
2 | 0
TNT serials [ 6.67 GB ] Отпуск / Сезон: 1 / Серии: 1-19 из 19 + Фильм о фильме [2021 WEBRip-AVC ] bober100 Скачать
3 | 0

28-11-2019 20:33  

Отключить всю рекламу на сайте

04-03-2021 18:20 Отпуск Скачать торрент  

Нахрена вообще выкладывать в этом говноформате?!pb.wtf



04-03-2021 18:40 Отпуск Скачать торрент  

Surovij писал(а):

Нахрена вообще выкладывать в этом говноформате?!

выложи в лучшем, бесполезный....pb.wtf



    Дорогой пользователь! Огромная просьба, поблагодарите релизера, оцените раздачу и оставьте свои комментарий, если Вы скачали Отпуск через торрент бесплатно!
    Комментировать посты могут только пользователи прошедшие не сложную регистрацию
    Показать сообщения:    

    Отпуск через торрент
    Скачать бесплатно Отпуск
    Отпуск скачать торрент
    Отпуск смотреть онлайн
    Cкачать фильм Отпуск бесплатно
    Отпуск скачать торрент в хорошем качестве
    Отпуск смотреть онлайн бесплатно в хорошем качестве


    Вы не можете начинать темы
    Вы не можете отвечать на сообщения
    Вы не можете редактировать свои сообщения
    Вы не можете удалять свои сообщения
    Вы не можете голосовать в опросах
    Вы не можете прикреплять файлы к сообщениям
    Вы можете скачивать файлы