Всегда рабочее зеркало без VPN и Proxy просто перед .vidak.icu напиши любое слово или цифру, Пример http://0f1k.vidak.icu

MVO

Лицензия

1 сезон

1

1 сезон

iTunes

1 сезон

13

1 сезон

Deluxe

pack

Рекомендуем

Repack

30

ВАЖНО

RePack

MK11

RePack

jed

RePack

fifa19

RePack

RDR2

RePack

NEED FOR SPEED™ PAYBACK

Кинопоиск HD

6 сезон

 Острые козырьки 6 сезон

Все сериалы

все сериалы на PB.wtf

RePack

FAR CRY 5
  
Magnet ссылка

100 тысяч минут вместе / Сезон: 1 / Серии: 1-16 из 16 (Руслан Ханумак) [2020, Комедия, WEB-DL 720p] pb.wtf

100 тысяч минут вместе через торрент pb.wtf

Размер: 7.04 GB | Добавлен: 1 год 4 мес. назад | Торрент скачан:118 раз
Смотреть онлайн 100 тысяч минут вместе | Скачать    Ребята, помогите собрать деньги на оплату серверов!!!

02-02-2021 22:18 100 тысяч минут вместе Скачать торрент  

100 тысяч минут вместе
Год выпуска: 2020
Страна: Украина
Студия: "Квартал 95"
Жанр: Комедия
Продолжительность: ~ 00:25:00
Субтитры: отсутствуют

Режиссер: Руслан Ханумак

В ролях: Руслан Ханумак, Дарья Рыбак, Альбина Гончар, Дария Кулиш, Людмила Кибенко, Василий Зверев (II), Тая Дмитренко

Описание:
После 7 лет брака супруги переживает непростой этап. Он – успешный пилот, она – фитнес-тренер, которой не занимать уверенности в себе. Как и все, пара на 69 дней закрывается на самоизоляцию из-за карантина.

Качество: WEB-DL 720p
Формат: MKV

Видео: 2550 Кбит/сек, 1280*480 (2,667), в 25,000 кадров/сек, AVC
Аудио: 192 Кбит/сек, 48,0 КГц, 16 бит, 2 канала, AC-3

Общее
Уникальный идентификатор : 174584815020151339550444605083007896019 (0x8357CFF36F29CFCB99094E54EBBCC9D3)
Полное имя : G:\100.000.Minut.Vmeste.2020.WEB-DLRip.(720p).shevanlk\01.100.000.Minut.Vmeste.mkv
Формат : Matroska
Версия формата : Version 2
Размер файла : 458 Мбайт
Продолжительность : 23 м. 21 с.
Общий поток : 2744 Кбит/сек
Дата кодирования : UTC 2021-02-02 17:28:04
Программа кодирования : mkvmerge v7.8.0 ('River Man') 32bit built on Apr 3 2015 12:11:22
Библиотека кодирования : libebml v1.3.1 + libmatroska v1.4.2

Видео
Идентификатор : 1
Формат : AVC
Формат/Информация : Advanced Video Codec
Профиль формата : [email protected]
Настройки формата : CABAC / 4 Ref Frames
Параметр CABAC формата : Да
Параметр RefFrames формата : 4 кадра
Идентификатор кодека : V_MPEG4/ISO/AVC
Продолжительность : 23 м. 21 с.
Битрейт : 2550 Кбит/сек
Ширина : 1280 пикселей
Высота : 480 пикселей
Соотношение сторон : 2,667
Режим частоты кадров : Постоянный
Частота кадров : 25,000 кадров/сек
Цветовое пространство : YUV
Субдискретизация насыщенности : 4:2:0
Битовая глубина : 8 бит
Тип развёртки : Прогрессивная
Бит/(Пиксели*Кадры) : 0.166
Размер потока : 417 Мбайт (91%)
Библиотека кодирования : x264 core 146 r2538 121396c
Настройки программы : cabac=1 / ref=3 / deblock=1:0:0 / analyse=0x3:0x133 / me=hex / subme=5 / psy=1 / psy_rd=1.00:0.00 / mixed_ref=0 / me_range=16 / chroma_me=1 / trellis=1 / 8x8dct=1 / cqm=0 / deadzone=21,11 / fast_pskip=1 / chroma_qp_offset=0 / threads=12 / lookahead_threads=3 / sliced_threads=0 / nr=0 / decimate=1 / interlaced=0 / bluray_compat=0 / constrained_intra=0 / bframes=16 / b_pyramid=2 / b_adapt=1 / b_bias=0 / direct=3 / weightb=0 / open_gop=0 / weightp=2 / keyint=250 / keyint_min=25 / scenecut=40 / intra_refresh=0 / rc_lookahead=40 / rc=2pass / mbtree=1 / bitrate=2550 / ratetol=1.0 / qcomp=0.60 / qpmin=0 / qpmax=69 / qpstep=4 / cplxblur=20.0 / qblur=0.5 / ip_ratio=1.40 / aq=1:1.00
Default : Да
Forced : Нет
Цветовой диапазон : Limited
Основные цвета : BT.709
Характеристики трансфера : BT.709
Коэффициенты матрицы : BT.709

Аудио
Идентификатор : 2
Формат : AC-3
Формат/Информация : Audio Coding 3
Коммерческое название : Dolby Digital
Идентификатор кодека : A_AC3
Продолжительность : 23 м. 21 с.
Вид битрейта : Постоянный
Битрейт : 192 Кбит/сек
Каналы : 2 канала
ChannelLayout : L R
Частота : 48,0 КГц
Частота кадров : 31,250 кадров/сек (1536 SPF)
Битовая глубина : 16 бит
Метод сжатия : С потерями
Размер потока : 32,1 Мбайт (7%)
ServiceKind/String : Complete Main
Default : Да
Forced : Нет


Скриншоты:
скриншот   скриншот   скриншот   скриншот   скриншот   скриншот   скриншот   
скриншот  
pb.wtf



Скачать 100 тысяч минут вместе через торрент https://pic1.kartinco.top/new/img/2021-02/03/3rpvdqblca4jwiojwuxn5212y.jpg Скачать, смотреть онлайн 100 тысяч минут вместе бесплантно в хорошем качестве Описание: После 7 лет брака супруги переживает непростой этап. Он – успешный пилот, она – фитнес-тренер, которой не занимать уверенности в ... 8.9 10 10
Торрент: Зарегистрирован [2021-02-11 21:59] · скачан: 118 раз
Статус: √ проверено
Размер: 7.04 GB
Как cкачать? Как скачать 100 тысяч минут вместе через торрент | UTorrent



Последний раз редактировалось: GEKADOL (2021-02-11 21:59), всего редактировалось 1 раз

28-11-2019 20:33  

Отключить всю рекламу на сайте

10-02-2021 20:29 100 тысяч минут вместе Скачать торрент  

Дно,не тратьте свое время.pb.wtf



    Дорогой пользователь! Огромная просьба, поблагодарите релизера, оцените раздачу и оставьте свои комментарий, если Вы скачали 100 тысяч минут вместе через торрент бесплатно!
    Комментировать посты могут только пользователи прошедшие не сложную регистрацию
    Показать сообщения:    

    100 тысяч минут вместе через торрент
    Скачать бесплатно 100 тысяч минут вместе
    100 тысяч минут вместе скачать торрент
    100 тысяч минут вместе смотреть онлайн
    Cкачать фильм 100 тысяч минут вместе бесплатно
    100 тысяч минут вместе скачать торрент в хорошем качестве
    100 тысяч минут вместе смотреть онлайн бесплатно в хорошем качестве


    Вы не можете начинать темы
    Вы не можете отвечать на сообщения
    Вы не можете редактировать свои сообщения
    Вы не можете удалять свои сообщения
    Вы не можете голосовать в опросах
    Вы не можете прикреплять файлы к сообщениям
    Вы можете скачивать файлы