1 сезон

1 сезон

iTunes

1

iTunes

Кинопоиск HD

iTunes

13

1 сезон

RePack

30

Deluxe

ВАЖНО

ИГРА 18+

pack

RePack

MK11
pack

Легкие деньги

RePack

jed

RePack

fifa19

RePack

RDR2

RePack

NEED FOR SPEED™ PAYBACK

4 сезон

9 сезон

Бесстыжие 9 сезон

Все сериалы

все сериалы на PB.wtf

RePack

FAR CRY 5
  
Magnet ссылка

Не пойман - не вор / Ni vu, ni connu (Ив Робер) [1958, Комедия, WEB-DLRip-AVC] [Coloured version] [Dub] (к/с им. М.Горького) pb.wtf

Не пойман - не вор через торрент pb.wtf

Раздают: 2 [ 0 KB/s ]
Размер: 1.43 GB | Добавлен: 3 мес. 10 д. назад | Торрент скачан:36 раз
Скачать  

04-02-2021 10:40 Не пойман - не вор Скачать торрент  

Не пойман - не вор / Ni vu, ni connu / Coloured version
Год выпуска: 1958
Жанр: Комедия
Страна: Франция
Студия: Champs-Élysées Productions
Продолжительность: 01:29:40
Перевод: Профессиональный (дублированный) - (киностудия им. М.Горького) + вставки DVO («Селена Интернешнл»)
Субтитры: французские

В ролях: Луи де Фюнес, Ноэль Адам, Клод Риш, Ролан Армонтель, Мадлен Барбюле, Фредерик Дювалле, Мусташ, Пьер Монди, Жан-Мари Амато, Робер Ваттье, Поль Февр, Пьер Мира, Люсьен Юбер, Пьер Стефен, Сабина Андре, Колетт Ришар, Жан Белланже, Франсис Лемарк, Джимми Перри, Жак Кутерье, Бернар Шарлан, Шарль Байяр, Даниэль Делорм, Макс Эллуа, Ги Фавьер, Грегуар Громофф

Описание: По мотивам пьесы Альфонса Алле (Alphonse Allais).
Монпаньяр - самый спокойный город Франции. Единственный возмутитель спокойствия - это рыночный торговец Блеро (Луи де Фюнес). Он имеет разрешение на продажу грибов на местном рынке, но поскольку спрос на рыбу высок, то Блеро в свободное время нелегально рыбачит и тайком продает рыбу без разрешения. Жандармы пытаются поймать браконьера, но безуспешно. Когда на одного из жандармов (Мусташ) совершается нападение, подозрение падает на Блеро, и его сажают в тюрьму на месяц...

rating

Качество видео: WEB-DLRip-AVC
Формат видео: MKV
Видео: AVC (H264), 1076x648 (1.66:1), 24 fps, 1900 kbps, 0.114 bits/pixel
Аудио #1: AC3, 48 KHz, stereo (2 ch), 192 kbps – советский дубляж
Аудио #2: AC3, 48 KHz, stereo (2 ch), 192 kbps – французский
Формат субтитров: softsub (SRT)
http://sendfile.su/1594276
https://www.sendspace.com/file/b9atwz
General
Unique ID : 218083540752314924216762508767379443289 (0xA4115CB5F261086C27FA37D1D9A5CE59)
Complete name : D:\torrents\Ni vu Ni connu (1958, colour, rus_dub+fre+fre_sub).mkv
Format : Matroska
Format version : Version 4 / Version 2
File size : 1.43 GiB
Duration : 1 h 29 min
Overall bit rate : 2 286 kb/s
Encoded date : UTC 2021-01-31 22:12:39
Writing application : mkvmerge v53.0.0 ('Fool's Gold') 64-bit
Writing library : libebml v1.4.1 + libmatroska v1.6.2

Video
ID : 1
Format : AVC
Format/Info : Advanced Video Codec
Format profile : High@L4.1
Format settings, CABAC : Yes
Format settings, RefFrames : 7 frames
Codec ID : V_MPEG4/ISO/AVC
Duration : 1 h 29 min
Bit rate : 1 900 kb/s
Width : 1 076 pixels
Height : 648 pixels
Display aspect ratio : 5:3
Frame rate mode : Constant
Frame rate : 24.000 FPS
Color space : YUV
Chroma subsampling : 4:2:0
Bit depth : 8 bits
Scan type : Progressive
Bits/(Pixel*Frame) : 0.114
Stream size : 1.19 GiB (83%)
Writing library : x264 core 159 r2991 1771b55
Encoding settings : cabac=1 / ref=7 / deblock=1:-1:-1 / analyse=0x3:0x133 / me=umh / subme=9 / psy=1 / psy_rd=1.00:0.00 / mixed_ref=1 / me_range=24 / chroma_me=1 / trellis=2 / 8x8dct=1 / cqm=0 / deadzone=21,11 / fast_pskip=1 / chroma_qp_offset=-2 / threads=20 / lookahead_threads=3 / sliced_threads=0 / nr=0 / decimate=1 / interlaced=0 / bluray_compat=0 / constrained_intra=0 / bframes=7 / b_pyramid=2 / b_adapt=2 / b_bias=0 / direct=3 / weightb=1 / open_gop=0 / weightp=2 / keyint=240 / keyint_min=24 / scenecut=40 / intra_refresh=0 / rc_lookahead=60 / rc=2pass / mbtree=1 / bitrate=1900 / ratetol=1.0 / qcomp=0.60 / qpmin=0 / qpmax=69 / qpstep=4 / cplxblur=20.0 / qblur=0.5 / ip_ratio=1.40 / aq=1:1.00
Language : French
Default : Yes
Forced : No

Audio #1
ID : 2
Format : AC-3
Format/Info : Audio Coding 3
Format settings, Endianness : Big
Codec ID : A_AC3
Duration : 1 h 29 min
Bit rate mode : Constant
Bit rate : 192 kb/s
Channel(s) : 2 channels
Channel positions : Front: L R
Sampling rate : 48.0 kHz
Frame rate : 31.250 FPS (1536 SPF)
Bit depth : 16 bits
Compression mode : Lossy
Stream size : 123 MiB (8%)
Language : Russian
Service kind : Complete Main
Default : Yes
Forced : No

Audio #2
ID : 3
Format : AC-3
Format/Info : Audio Coding 3
Format settings, Endianness : Big
Codec ID : A_AC3
Duration : 1 h 29 min
Bit rate mode : Constant
Bit rate : 192 kb/s
Channel(s) : 2 channels
Channel positions : Front: L R
Sampling rate : 48.0 kHz
Frame rate : 31.250 FPS (1536 SPF)
Bit depth : 16 bits
Compression mode : Lossy
Stream size : 123 MiB (8%)
Language : French
Service kind : Complete Main
Default : No
Forced : No

Text
ID : 4
Format : UTF-8
Codec ID : S_TEXT/UTF8
Codec ID/Info : UTF-8 Plain Text
Duration : 1 h 27 min
Bit rate : 53 b/s
Count of elements : 1098
Stream size : 34.5 KiB (0%)
Language : French
Default : No
Forced : No
pb.wtf



Скачать Не пойман - не вор через торрент https://i114.fastpic.ru/big/2021/0203/cf/4fa0efc68a9110db9052454ae71673cf.jpg Скачать фильм Не пойман - не вор через торрент бесплантно в хорошем качестве Описание: По мотивам пьесы Альфонса Алле (Alphonse Allais).Монпаньяр - самый спокойный город Франции. Единственный возмутитель спокойствия ... 10 10 2
Торрент: Зарегистрирован [2021-02-04 10:40] · скачан: 36 раз
Статус: √ проверено
Размер: 1.43 GB
Как cкачать? Как скачать Не пойман - не вор через торрент | UTorrent

% Раздел Тема Автор DL S | L
Фильмы [HD 720p, 1080p] (Хороший звук DUB, MVO) [ 12.05 GB ] Не пойман - не вор / Ni vu ni connu [1958 BDRip 1080p by msltel] DUB MVO msltel Скачать
1 | 0
Фильмы [HD 720p, 1080p] (Хороший звук DUB, MVO) [ 4.53 GB ] Не пойман - не вор / Ni vu ni connu [1958 BDRip 720p by msltel] DUB MVO msltel Скачать
1 | 0

28-11-2019 20:33  

Отключить всю рекламу на сайте

    Дорогой пользователь! Огромная просьба, поблагодарите релизера, оцените раздачу и оставьте свои комментарий, если Вы скачали Не пойман - не вор через торрент бесплатно! Внесите свою лепту в развитие PiratBit!
    Комментировать посты могут только пользователи прошедшие не сложную регистрацию
    Показать сообщения:    

    Не пойман - не вор через торрент
    Скачать бесплатно Не пойман - не вор
    Не пойман - не вор скачать торрент
    Не пойман - не вор смотреть онлайн
    Cкачать фильм Не пойман - не вор бесплатно
    Не пойман - не вор скачать торрент в хорошем качестве
    Не пойман - не вор смотреть онлайн бесплатно в хорошем качестве


    Вы не можете начинать темы
    Вы не можете отвечать на сообщения
    Вы не можете редактировать свои сообщения
    Вы не можете удалять свои сообщения
    Вы не можете голосовать в опросах
    Вы не можете прикреплять файлы к сообщениям
    Вы можете скачивать файлы