2 сезон

iTunes

WEBRip

1

2 сезон

iTunes

1 сезон

1 сезон

RePack

30

Ultimate

ВАЖНО

ИГРА 18+

pack

RePack

MK11
pack

Легкие деньги

RePack

jed

RePack

fifa19

RePack

RDR2

RePack

NEED FOR SPEED™ PAYBACK

4 сезон

9 сезон

Бесстыжие 9 сезон

Все сериалы

все сериалы на PB.wtf

RePack

FAR CRY 5

Anonymous, добрый вечер, мы не успеваем собрать деньги на оплату серверов за февраль, помогите нам пожалуйста в это трудное время. В качестве благодарности мы отключим Вам всю рекламу на сайте (укажите свой ник в строку Ваше имя)!

×
  
Magnet ссылка

Последний герой. Чемпионы против новичков / Сезон: 3 / Серии: 1-4 из 13 + Спецвыпуск [2021, Реалити-шоу, SATRip] pb.wtf

Последний герой. Чемпионы против новичков через торрент pb.wtf

Раздают: 3 [ 266 KB/s ] Качают: 5 [ 0 KB/s ]
Размер: 4.89 GB | Добавлен: 5 д. назад | Торрент скачан:5 раз
Скачать  

06-02-2021 11:38 Последний герой. Чемпионы против новичков Скачать торрент  

Последний герой. Чемпионы против новичков
Год выпуска: 2021
Страна: Россия
Выпущено: Производство ООО «Мастифф» по заказу ООО «Телеканал ТВ3»
Жанр: Реалити-шоу
Продолжительность: ~ 01:36:00
Перевод: Не требуется

Ведущий: Яна Троянова

Описание: Легендарное реалити "Последний герой" возвращается. Впервые на ТВ-3 16 новых участников отправятся в Африку, на Занзибар. В новом сезоне реалити "Последний герой" изменится все: новый континент, новые испытания и... новые команды. Чемпионы всех сезонов будут противостоять новичкам со всей России. Кому же покорится Африка?

Качество: SATRip
Формат: AVI

Видео: XviD, 720x400 (16:9), 25.000 fps, ~ 1700 Кбит/с, (0.236 bit/pixel)
Аудио: MP3, 48.0 KHz, 2 ch, 192 Кбит/с, CBR
скриншот  скриншот  скриншот  скриншот  скриншот  

Общее
Полное имя : D:\Poslednij.Geroj.S03.XviD.2021.SATRip.7turza™\01.Poslednij.Geroj.S03.XviD.7turza™.avi
Формат : AVI
Формат/Информация : Audio Video Interleave
Профиль формата : OpenDML
Размер файла : 1,27 Гбайт
Продолжительность : 1 ч. 35 м.
Общий поток : 1904 Кбит/сек
Название фильма : 01.Poslednij.Geroj.S03.XviD.7turzaв„ў
Программа кодирования : Lavf58.45.100

Видео
Идентификатор : 0
Формат : MPEG-4 Visual
Профиль формата : Advanced Simple@L5
Настройки формата : BVOP1
Параметр BVOP формата : 1
Параметр QPel формата : Нет
Параметр GMC формата : Без точки перехода
Параметр матрицы формата : Default (H.263)
Идентификатор кодека : XVID
Идентификатор кодека/Подсказка : XviD
Продолжительность : 1 ч. 35 м.
Битрейт : 1696 Кбит/сек
Ширина : 720 пикселей
Высота : 400 пикселей
Соотношение сторон : 1,85:1
Частота кадров : 25,000 кадров/сек
Цветовое пространство : YUV
Субдискретизация насыщенности : 4:2:0
Битовая глубина : 8 бит
Тип развёртки : Прогрессивная
Метод сжатия : С потерями
Бит/(Пиксели*Кадры) : 0.236
Размер потока : 1,13 Гбайт (89%)
Библиотека кодирования : XviD 69

Аудио
Идентификатор : 1
Формат : MPEG Audio
Версия формата : Version 1
Профиль формата : Layer 3
Настройки формата : Joint stereo / MS Stereo
Идентификатор кодека : 55
Идентификатор кодека/Подсказка : MP3
Продолжительность : 1 ч. 35 м.
Вид битрейта : Постоянный
Битрейт : 192 Кбит/сек
Каналы : 2 канала
Частота : 48,0 КГц
Метод сжатия : С потерями
Размер потока : 131 Мбайт (10%)
Выравнивание : Соединение по промежуткам
Продолжительность промежутка : 24 мс. (0,60 видеокадр)

Внимание! Раздача ведётся путём добавления новых серий; при каждом добавлении создаётся новый торрент.
Чтобы начать докачку новой серии, пользователям необходимо сделать следующее:
1. Остановить скачивание;
2. Удалить старый торрент у себя из клиента (старые серии удалять не надо);
3. Скачать новый торрент и запустить его у себя в клиенте вместо старого, при этом указать клиенту путь в старую папку куда и должно происходить скачивание новых серий. Ваш клиент при этом должен произвести хеширование (проверку) старой папки и будет докачивать только те серии, которых у вас ещё нет. Старые серии при этом не удаляются, а продолжают раздаваться! Eсли вы уже удалили старые серии, то предотвратить повторную закачку старых серий можно, отжав галочку в соответствующих местах при запуске нового торрента.

pb.wtf



Скачать Последний герой. Чемпионы против новичков через торрент https://b.radikal.ru/b09/2102/fb/94e3b587808b.jpg Скачать фильм Последний герой. Чемпионы против новичков через торрент бесплантно в хорошем качестве Описание: Легендарное реалити "Последний герой" возвращается. Впервые на ТВ-3 16 новых участников отправятся в Африку, на Занзибар. В новом ... 10 10 3
Торрент: Зарегистрирован [2021-02-27 16:35] · скачан: 5 раз
Статус: √ проверено
Размер: 4.89 GB
Как cкачать? Как скачать Последний герой. Чемпионы против новичков через торрент | UTorrent



Последний раз редактировалось: bober100 (2021-02-14 16:10), всего редактировалось 1 раз

28-11-2019 20:33  

Отключить всю рекламу на сайте

    Дорогой пользователь! Огромная просьба, поблагодарите релизера, оцените раздачу и оставьте свои комментарий, если Вы скачали Последний герой. Чемпионы против новичков через торрент бесплатно! Внесите свою лепту в развитие PiratBit!
    Комментировать посты могут только пользователи прошедшие не сложную регистрацию
    Показать сообщения:    

    Последний герой. Чемпионы против новичков через торрент
    Скачать бесплатно Последний герой. Чемпионы против новичков
    Последний герой. Чемпионы против новичков скачать торрент
    Последний герой. Чемпионы против новичков смотреть онлайн
    Cкачать фильм Последний герой. Чемпионы против новичков бесплатно
    Последний герой. Чемпионы против новичков скачать торрент в хорошем качестве
    Последний герой. Чемпионы против новичков смотреть онлайн бесплатно в хорошем качестве


    Вы не можете начинать темы
    Вы не можете отвечать на сообщения
    Вы не можете редактировать свои сообщения
    Вы не можете удалять свои сообщения
    Вы не можете голосовать в опросах
    Вы не можете прикреплять файлы к сообщениям
    Вы можете скачивать файлы