2 сезон

iTunes

WEBRip

1

2 сезон

iTunes

1 сезон

1 сезон

RePack

30

Новинка

ВАЖНО

ИГРА 18+

pack

RePack

MK11
pack

Легкие деньги

RePack

jed

RePack

fifa19

RePack

RDR2

RePack

NEED FOR SPEED™ PAYBACK

4 сезон

9 сезон

Бесстыжие 9 сезон

Все сериалы

все сериалы на PB.wtf

RePack

FAR CRY 5

Anonymous, добрый вечер, мы не успеваем собрать деньги на оплату серверов за февраль, помогите нам пожалуйста в это трудное время. В качестве благодарности мы отключим Вам всю рекламу на сайте (укажите свой ник в строку Ваше имя)!

×
  
Magnet ссылка

Семейка Бигфутов / Bigfoot Family (Жереми Дегрусон, Бен Стассен) [2020, Мультфильм, приключения, семейный, BD Remux 1080p] DUB [iTunes] pb.wtf

Семейка Бигфутов через торрент pb.wtf

Раздают: 1 [ 0 KB/s ]
Размер: 16.22 GB | Добавлен: 1 мес. назад | Торрент скачан:35 раз
Скачать  

08-02-2021 18:39 Семейка Бигфутов Скачать торрент  

Семейка Бигфутов | Bigfoot Family
Год выпуска: 2020
Страна: Бельгия, Франция
Выпущено: Belga Productions, Illuminata Pictures, nWave Pictures
Жанр: Мультфильм, приключения, семейный
Продолжительность: 01:28:33
Перевод: Дублированное | iTunes
Субтитры: Русские (Full), английские

Режиссер: Жереми Дегрусон, Бен Стассен

rating

В ролях: Килиан Труильяр, Алексис Виктор, Мари Шевало, Фредерик Сутерель, Себастьян Дежу, Пьер Тессье, Ксавьер Фаньон, Клара Куиличини

Описание: Все семьи разные, но эта – самая разношерстная. Папа когда-то превратился в Бигфута, сын унаследовал его суперспособности и умение понимать язык животных, так еще и в доме вместе с ними и мамой живет целый зоопарк – огромный медведь, неутомимая белка и беспокойный енот со множеством очаровательных детенышей. Когда же уникальному заповеднику на Аляске понадобится помощь, вся семейка Бигфутов отправится в большое путешествие и покажет всему миру, на что способна их команда…

Качество: BD Remux 1080p
Формат: MKV

Видео: MPEG-4 AVC, 1920x1080, 21.9 Mbit/s, 23.976 fps
Аудио#1: 48 kHz, AC3, 5.1, 384 Kbps | iTunes | RUS |
Аудио#2: 48 kHz, DTS-HD MA, 5.1, 3847 Kbps | Оригинал | ENG |
скриншот  скриншот  скриншот  скриншот  скриншот  

General
Unique ID : 336674975264383549598978215571069936089 (0xFD493DDC098439A153112DB15B1921D9)
Complete name : D:VideoBigfoot.Family.2020.BDREMUX.1080p.seleZen.mkv
Format : Matroska
Format version : Version 4
File size : 16.2 GiB
Duration : 1 h 28 min
Overall bit rate mode : Variable
Overall bit rate : 26.2 Mb/s
Movie name : Bigfoot.Family.2020 from seleZen
Encoded date : UTC 2021-02-08 17:18:55
Writing application : mkvmerge v52.0.0 ('Secret For The Mad') 64-bit
Writing library : libebml v1.4.1 + libmatroska v1.6.2

Video
ID : 1
Format : AVC
Format/Info : Advanced Video Codec
Format profile : High@L4.1
Format settings : CABAC / 4 Ref Frames
Format settings, CABAC : Yes
Format settings, Reference : 4 frames
Format settings, GOP : M=3, N=24
Codec ID : V_MPEG4/ISO/AVC
Duration : 1 h 28 min
Bit rate mode : Variable
Bit rate : 21.9 Mb/s
Maximum bit rate : 29.0 Mb/s
Width : 1 920 pixels
Height : 1 080 pixels
Display aspect ratio : 16:9
Frame rate mode : Constant
Frame rate : 23.976 (24000/1001) FPS
Standard : NTSC
Color space : YUV
Chroma subsampling : 4:2:0
Bit depth : 8 bits
Scan type : Progressive
Bits/(Pixel*Frame) : 0.441
Stream size : 13.6 GiB (84%)
Language : French
Default : Yes
Forced : No
Color range : Limited
Color primaries : BT.709
Transfer characteristics : BT.709
Matrix coefficients : BT.709

Audio #1
ID : 2
Format : AC-3
Format/Info : Audio Coding 3
Commercial name : Dolby Digital
Codec ID : A_AC3
Duration : 1 h 28 min
Bit rate mode : Constant
Bit rate : 384 kb/s
Channel(s) : 6 channels
Channel layout : L R C LFE Ls Rs
Sampling rate : 48.0 kHz
Frame rate : 31.250 FPS (1536 SPF)
Compression mode : Lossy
Stream size : 244 MiB (1%)
Title : iTunes
Language : Russian
Service kind : Complete Main
Default : Yes
Forced : Yes

Audio #2
ID : 3
Format : DTS XLL
Format/Info : Digital Theater Systems
Commercial name : DTS-HD Master Audio
Codec ID : A_DTS
Duration : 1 h 28 min
Bit rate mode : Variable
Bit rate : 3 847 kb/s
Channel(s) : 6 channels
Channel layout : C L R Ls Rs LFE
Sampling rate : 48.0 kHz
Frame rate : 93.750 FPS (512 SPF)
Bit depth : 24 bits
Compression mode : Lossless
Stream size : 2.38 GiB (15%)
Language : English
Default : No
Forced : No

Text #1
ID : 4
Format : UTF-8
Codec ID : S_TEXT/UTF8
Codec ID/Info : UTF-8 Plain Text
Duration : 1 h 21 min
Bit rate : 101 b/s
Count of elements : 1110
Stream size : 60.1 KiB (0%)
Language : Russian
Default : No
Forced : No

Text #2
ID : 5
Format : UTF-8
Codec ID : S_TEXT/UTF8
Codec ID/Info : UTF-8 Plain Text
Duration : 1 h 20 min
Bit rate : 56 b/s
Count of elements : 951
Stream size : 33.6 KiB (0%)
Language : English
Default : No
Forced : No

Menu
00:00:00.000 : fr:Глава 01
00:08:55.160 : fr:Глава 02
00:13:26.431 : fr:Глава 03
00:21:31.665 : fr:Глава 04
00:29:40.654 : fr:Глава 05
00:37:13.273 : fr:Глава 06
00:45:31.187 : fr:Глава 07
00:52:21.055 : fr:Глава 08
01:00:03.642 : fr:Глава 09
01:05:57.495 : fr:Глава 10
01:16:18.866 : fr:Глава 11
01:23:50.901 : fr:Глава 12

pb.wtf



Скачать Семейка Бигфутов через торрент https://i114.fastpic.ru/big/2020/1127/a6/cff44c76c7de4792a59ee59b1ad4b8a6.jpg Скачать фильм Семейка Бигфутов через торрент бесплантно в хорошем качестве Описание: Все семьи разные, но эта – самая разношерстная. Папа когда-то превратился в Бигфута, сын унаследовал его суперспособности и ... 10 10 4
Торрент: Зарегистрирован [2021-02-08 18:57] · скачан: 35 раз
Статус: √ проверено
Размер: 16.22 GB
Как cкачать? Как скачать Семейка Бигфутов через торрент | UTorrent

% Раздел Тема Автор DL S | L
3D Мультфильмы [ 14.13 GB ] Семейка Бигфутов в 3Д / Bigfoot Family 3D [2020 мультфильм BDRip 1080p] OverUnder / Вертикальная стереопара () serega768 Скачать
1 | 0
3D Мультфильмы [ 8.69 GB ] Семейка Бигфутов 3Д / Bigfoot Family 3D [2020 Мультфильм BDRip 1080p ] bober100 Скачать
1 | 0
Зарубежные Мультфильмы (BDRip 1080p, 720p, Blu-ray, BD-Remux) [ 25.67 GB ] Семейка Бигфутов / Bigfoot Family [2020 Мультфильм BD Remux 1080p ] bober100 Скачать
1 | 0
Иностранные мультфильмы [ 1.42 GB ] Семейка Бигфутов / Bigfoot Family [2020 Мультфильм полнометражный BDRip] - Twi7ter Скачать
17 | 0
Зарубежные Мультфильмы (WEB-DL 720p, 1080p) [ 3.86 GB ] Семейка Бигфутов / Bigfoot Family [2020 Мультфильм WEB-DL 1080p] bober100 Скачать
14 | 0
Зарубежные Мультфильмы (BDRip 1080p, 720p, Blu-ray, BD-Remux) [ 8.71 GB ] Семейка Бигфутов / Bigfoot Family [2020 Мультфильм BDRip 1080p] bober100 Скачать
18 | 0
Иностранные мультфильмы [ 2.06 GB ] Семейка Бигфутов / Bigfoot Family [2020 Мультфильм полнометражный HDRip-AVC] от MediaBit Lithuania Скачать
12 | 0

28-11-2019 20:33  

Отключить всю рекламу на сайте

    Дорогой пользователь! Огромная просьба, поблагодарите релизера, оцените раздачу и оставьте свои комментарий, если Вы скачали Семейка Бигфутов через торрент бесплатно! Внесите свою лепту в развитие PiratBit!
    Комментировать посты могут только пользователи прошедшие не сложную регистрацию
    Показать сообщения:    

    Семейка Бигфутов через торрент
    Скачать бесплатно Семейка Бигфутов
    Семейка Бигфутов скачать торрент
    Семейка Бигфутов смотреть онлайн
    Cкачать фильм Семейка Бигфутов бесплатно
    Семейка Бигфутов скачать торрент в хорошем качестве
    Семейка Бигфутов смотреть онлайн бесплатно в хорошем качестве


    Вы не можете начинать темы
    Вы не можете отвечать на сообщения
    Вы не можете редактировать свои сообщения
    Вы не можете удалять свои сообщения
    Вы не можете голосовать в опросах
    Вы не можете прикреплять файлы к сообщениям
    Вы можете скачивать файлы