2 сезон

iTunes

WEBRip

1

2 сезон

iTunes

1 сезон

1 сезон

RePack

30

Новинка

ВАЖНО

ИГРА 18+

pack

RePack

MK11
pack

Легкие деньги

RePack

jed

RePack

fifa19

RePack

RDR2

RePack

NEED FOR SPEED™ PAYBACK

4 сезон

9 сезон

Бесстыжие 9 сезон

Все сериалы

все сериалы на PB.wtf

RePack

FAR CRY 5

Anonymous, доброй ночи, мы не успеваем собрать деньги на оплату серверов за февраль, помогите нам пожалуйста в это трудное время. В качестве благодарности мы отключим Вам всю рекламу на сайте (укажите свой ник в строку Ваше имя)!

×
  
Magnet ссылка

Когда на земле царили динозавры / When Dinosaurs Ruled The Earth (Вэл Гест) [1970 г., Фантастика, фэнтези, мелодрама, приключения, BDRip 720p, Профессиональный (одноголосый)] от ExKinoRay pb.wtf

Когда на земле царили динозавры через торрент pb.wtf

Размер: 5.84 GB | Добавлен: 22 д. назад | Торрент скачан:56 раз
Скачать  

09-02-2021 05:34 Когда на земле царили динозавры Скачать торрент  

Когда на земле царили динозавры / When Dinosaurs Ruled The Earth
Год выпуска: 1970
Страна: Великобритания
Жанр: Фантастика, фэнтези, мелодрама, приключения
Продолжительность: 01:39:41
Перевод: Профессиональный (одноголосый)
Субтитры: Английские (SDH)

Режиссер: Вэл Гест

Бюджет: £ 566 000
Премьера в мире: 25 октября 1970

rating

В ролях: Виктория Ветри, Роберт Хоудон, Патрик Аллен, Дрюи Хенли, Шон Кэффри, Магда Конопка, Имоджен Хэссэл, Патрик Хол, Жан Россини, Кэрол Хоукинс

Описание: Миллион лет до нашей эры, когда на земле царили динозавры, племя жителей скал приносило в жертву богу солнца светловолосых девушек. Однажды, в день жертвоприношения, произошла страшная вспышка на солнце, от которой поднялась ужасная буря, во время которой очередная жертва - Санна, сбегает от соплеменников. Девушка находит приют в соседнем племени, живущем в песках, где она сразу завоевывает сердце ловкого Тара - вождя племени. За это темноволосые женщины песков изгоняют прекрасную соперницу в джунгли. Волей случая она становится «приемной дочерью» громадного динозавра и «сестрой ее детенышу».

Качество: BDRip 720p
Формат: MKV
Видео кодек: MPEG4
Аудио кодек: AC3
Видео: 8000 Кбит/с, 1280x720, 23.976 кадра/сек
Аудио#1: Русский (AC3, 2 ch, 192 Кбит/с, 48 КГц)
Аудио#2: Английский (AC3, 2 ch, 192 Кбит/с, 48 КГц)
Релиз от:
x264 [info]: profile High, level 4.1
x264 [info]: frame I:1055 Avg QP:19.21 size:138658
x264 [info]: frame P:32359 Avg QP:21.66 size: 63513
x264 [info]: frame B:110010 Avg QP:23.22 size: 34359
-----
Общее
Уникальный идентификатор : 219729429052348617915149034544696513058 (0xA54E5944E518C3DA950AF3430DF1D222)
Полное имя : D:\MyRips\Dinosaurs.Earth.1970.BDRip720p.ExKinoRay.mkv
Формат : Matroska
Версия формата : Version 2
Размер файла : 5,84 Гбайт
Продолжительность : 1 ч. 39 м.
Общий поток : 8385 Кбит/сек
Дата кодирования : UTC 2021-02-09 03:32:41
Программа кодирования : mkvmerge v7.8.0 ('River Man') 32bit built on Apr 3 2015 12:11:22
Библиотека кодирования : libebml v1.3.1 + libmatroska v1.4.2

Видео
Идентификатор : 1
Формат : AVC
Формат/Информация : Advanced Video Codec
Профиль формата : High@L4.1
Настройки формата : CABAC / 9 Ref Frames
Параметр CABAC формата : Да
Параметр RefFrames формата : 9 кадров
Идентификатор кодека : V_MPEG4/ISO/AVC
Продолжительность : 1 ч. 39 м.
Битрейт : 8000 Кбит/сек
Ширина : 1280 пикселей
Высота : 720 пикселей
Соотношение сторон : 16:9
Режим частоты кадров : Постоянный
Частота кадров : 23,976 (24000/1001) кадра/сек
Цветовое пространство : YUV
Субдискретизация насыщенности : 4:2:0
Битовая глубина : 8 бит
Тип развёртки : Прогрессивная
Бит/(Пиксели*Кадры) : 0.362
Размер потока : 5,46 Гбайт (93%)
Библиотека кодирования : x264 core 152 r2851 ba24899
Настройки программы : cabac=1 / ref=9 / deblock=1:-3:-2 / analyse=0x3:0x113 / me=umh / subme=10 / psy=1 / psy_rd=1.00:0.10 / mixed_ref=1 / me_range=32 / chroma_me=1 / trellis=2 / 8x8dct=1 / cqm=0 / deadzone=21,11 / fast_pskip=0 / chroma_qp_offset=-3 / threads=6 / lookahead_threads=1 / sliced_threads=0 / nr=0 / decimate=0 / interlaced=0 / bluray_compat=0 / constrained_intra=0 / bframes=14 / b_pyramid=2 / b_adapt=2 / b_bias=0 / direct=3 / weightb=1 / open_gop=0 / weightp=2 / keyint=240 / keyint_min=23 / scenecut=40 / intra_refresh=0 / rc=2pass / mbtree=0 / bitrate=8000 / ratetol=1.0 / qcomp=0.60 / qpmin=0 / qpmax=69 / qpstep=4 / cplxblur=20.0 / qblur=0.5 / ip_ratio=1.40 / pb_ratio=1.30 / aq=3:1.00
Язык : English
Default : Да
Forced : Нет
Цветовой диапазон : Limited
Основные цвета : BT.709
Характеристики трансфера : BT.709
Коэффициенты матрицы : BT.709

Аудио #1
Идентификатор : 2
Формат : AC-3
Формат/Информация : Audio Coding 3
Коммерческое название : Dolby Digital
Идентификатор кодека : A_AC3
Продолжительность : 1 ч. 39 м.
Вид битрейта : Постоянный
Битрейт : 192 Кбит/сек
Каналы : 1 канал
Channel layout : C
Частота : 48,0 КГц
Частота кадров : 31,250 кадров/сек (1536 SPF)
Битовая глубина : 16 бит
Метод сжатия : С потерями
Размер потока : 137 Мбайт (2%)
Заголовок : Профессиональный одноголосый (НТВ)
Язык : Russian
ServiceKind/String : Complete Main
Default : Да
Forced : Нет

Аудио #2
Идентификатор : 3
Формат : AC-3
Формат/Информация : Audio Coding 3
Коммерческое название : Dolby Digital
Идентификатор кодека : A_AC3
Продолжительность : 1 ч. 39 м.
Вид битрейта : Постоянный
Битрейт : 192 Кбит/сек
Каналы : 2 канала
Channel layout : L R
Частота : 48,0 КГц
Частота кадров : 31,250 кадров/сек (1536 SPF)
Битовая глубина : 16 бит
Метод сжатия : С потерями
Размер потока : 137 Мбайт (2%)
Язык : English
ServiceKind/String : Complete Main
Default : Нет
Forced : Нет

Текст
Идентификатор : 4
Формат : UTF-8
Идентификатор кодека : S_TEXT/UTF8
Идентификатор кодека/Информация : UTF-8 Plain Text
Язык : English
Default : Нет
Forced : Нет

Меню
00:00:00.000 : en:Глава 01
00:00:10.010 : en:Глава 02
00:01:57.117 : en:Глава 03
00:05:12.520 : en:Глава 04
00:09:48.337 : en:Глава 05
00:12:29.498 : en:Глава 06
00:19:12.943 : en:Глава 07
00:25:13.220 : en:Глава 08
00:32:03.588 : en:Глава 09
00:36:45.786 : en:Глава 10
00:41:45.961 : en:Глава 11
00:44:18.989 : en:Глава 12
00:47:32.975 : en:Глава 13
00:51:15.363 : en:Глава 14
00:53:23.074 : en:Глава 15
00:57:07.632 : en:Глава 16
01:01:18.257 : en:Глава 17
01:04:24.402 : en:Глава 18
01:06:32.321 : en:Глава 19
01:10:03.657 : en:Глава 20
01:15:10.881 : en:Глава 21
01:19:24.176 : en:Глава 22
01:24:29.689 : en:Глава 23
01:29:21.731 : en:Глава 24
01:33:45.119 : en:Глава 25
01:39:08.192 : en:Глава 26

pb.wtf



Скачать Когда на земле царили динозавры через торрент http://c.radikal.ru/c19/2102/9a/7f69c287ae8d.jpg Скачать фильм Когда на земле царили динозавры через торрент бесплантно в хорошем качестве Описание: Миллион лет до нашей эры, когда на земле царили динозавры, племя жителей скал приносило в жертву богу солнца светловолосых ... 10 10 6
Торрент: Зарегистрирован [2021-02-09 05:34] · скачан: 56 раз
Статус: √ проверено
Размер: 5.84 GB
Как cкачать? Как скачать Когда на земле царили динозавры через торрент | UTorrent

28-11-2019 20:33  

Отключить всю рекламу на сайте

10-02-2021 18:53 Когда на земле царили динозавры Скачать торрент  

последний скриншот только зачетный.pb.wtf



    Дорогой пользователь! Огромная просьба, поблагодарите релизера, оцените раздачу и оставьте свои комментарий, если Вы скачали Когда на земле царили динозавры через торрент бесплатно! Внесите свою лепту в развитие PiratBit!
    Комментировать посты могут только пользователи прошедшие не сложную регистрацию
    Показать сообщения:    

    Когда на земле царили динозавры через торрент
    Скачать бесплатно Когда на земле царили динозавры
    Когда на земле царили динозавры скачать торрент
    Когда на земле царили динозавры смотреть онлайн
    Cкачать фильм Когда на земле царили динозавры бесплатно
    Когда на земле царили динозавры скачать торрент в хорошем качестве
    Когда на земле царили динозавры смотреть онлайн бесплатно в хорошем качестве


    Вы не можете начинать темы
    Вы не можете отвечать на сообщения
    Вы не можете редактировать свои сообщения
    Вы не можете удалять свои сообщения
    Вы не можете голосовать в опросах
    Вы не можете прикреплять файлы к сообщениям
    Вы можете скачивать файлы