1 сезон

1 сезон

iTunes

1

КиноПоиск HD

Кинопоиск HD

iTunes

13

1 сезон

RePack

30

Новинка

ВАЖНО

ИГРА 18+

pack

RePack

MK11
pack

Легкие деньги

RePack

jed

RePack

fifa19

RePack

RDR2

RePack

NEED FOR SPEED™ PAYBACK

4 сезон

9 сезон

Бесстыжие 9 сезон

Все сериалы

все сериалы на PB.wtf

RePack

FAR CRY 5
  
Magnet ссылка

Проклятие ведьмы / The Reckoning (Нил Маршалл) [2020, Ужасы, HDRip-AVC] DUB [iTunes] от MediaBit pb.wtf

Проклятие ведьмы через торрент pb.wtf

Раздают: 25 [ 357 KB/s ]
Размер: 2.05 GB | Добавлен: 4 д. назад | Торрент скачан:125 раз
Скачать  

09-02-2021 18:20 Проклятие ведьмы Скачать торрент  


Проклятие ведьмы / The Reckoning
Информация о фильме:
Название: Проклятие ведьмы
Оригинальное название: The Reckoning
Год выхода: 2020
Жанр: Ужасы
Режиссер: Нил Маршалл
В ролях: Шарлотта Кирк, Джо Андерсон, Стивен Вэддингтон, Шон Пертуи, Йен Уайт, Эмма Холцер, Кэл Макэнинк, Рик Уорден, Марк Райан, Леон Окенден

Описание: XVII век. Времена чумы и безжалостной охоты на ведьм. Дьявол протягивает руку помощи девушке, попавшей в заточение Святой инквизиции. Под пытками от нее требуют признаться в сговоре с темными силами. Однако, чем дольше девушка терпит мучения, тем меньше у неё сил сопротивляться предложению Князя тьмы.



Страна: Великобритания
Студия: BondIt, Buffalo 8 Productions, Fourth Culture Films, Moviebar Productions
Продолжительность: 01:46:20
Перевод: Дублированный - iTunes



Информация о файле:
Кодек: AVC
Формат: MKV
Качество: HDRip-AVC
Видео: MPEG-4 AVC, 1024x432, 23.976 fps, 1810 kbps
Аудио RU: AC3, 6 ch, 48 kHz, 384 kbps
Аудио EN: AC3, 6 ch, 48 kHz, 448 kbps
Субтитры: Русские (Full), английские
Навигация по главам: Да

x264 info: frame I:1401 Avg QP:11.85 size: 72109
x264 info: frame P:33095 Avg QP:15.21 size: 20466
x264 info: frame B:125082 Avg QP:17.61 size: 5813
x264 info: consecutive B-frames: 2.2% 2.4% 7.2% 14.2% 16.0% 41.6% 8.6% 5.2% 2.0% 0.2% 0.4%
General
Unique ID : 219842020299817810460904974492191571122 (0xA56408723AB270F722C21DC778CE3CB2)
Complete name : D:uTorrentРипы_от_wolf1245_MediaBitThe Reckoning.2020.DUB.iTunes.HDRip-AVC.[wolf1245.MediaBit].mkv
Format : Matroska
Format version : Version 4
File size : 2.05 GiB
Duration : 1 h 51 min
Overall bit rate : 2 642 kb/s
Movie name : The Reckoning.2020.DUB.iTunes.HDRip-AVC.[wolf1245.MediaBit]
Encoded date : UTC 2021-04-07 16:54:06
Writing application : mkvmerge v56.0.0 ('Strasbourg / St. Denis') 64-bit
Writing library : libebml v1.4.2 + libmatroska v1.6.4
Video
ID : 1
Format : AVC
Format/Info : Advanced Video Codec
Format profile : High@L4.1
Format settings : CABAC / 12 Ref Frames
Format settings, CABAC : Yes
Format settings, Reference frames : 12 frames
Codec ID : V_MPEG4/ISO/AVC
Duration : 1 h 50 min
Bit rate : 1 810 kb/s
Width : 1 024 pixels
Height : 432 pixels
Display aspect ratio : 2.40:1
Frame rate mode : Constant
Frame rate : 23.976 (24000/1001) FPS
Color space : YUV
Chroma subsampling : 4:2:0
Bit depth : 8 bits
Scan type : Progressive
Bits/(Pixel*Frame) : 0.171
Stream size : 1.40 GiB (68%)
Title : [wolf1245.MediaBit]
Writing library : x264 core 157 r2958 57baac4
Encoding settings : cabac=1 / ref=12 / deblock=1:0:0 / analyse=0x3:0x133 / me=umh / subme=11 / psy=1 / psy_rd=1.02:0.05 / mixed_ref=1 / me_range=48 / chroma_me=1 / trellis=2 / 8x8dct=1 / cqm=0 / deadzone=21,11 / fast_pskip=1 / chroma_qp_offset=-3 / threads=10 / lookahead_threads=2 / sliced_threads=0 / nr=0 / decimate=1 / interlaced=0 / bluray_compat=0 / constrained_intra=0 / bframes=10 / b_pyramid=2 / b_adapt=2 / b_bias=0 / direct=3 / weightb=1 / open_gop=0 / weightp=2 / keyint=240 / keyint_min=24 / scenecut=40 / intra_refresh=0 / rc_lookahead=60 / rc=2pass / mbtree=1 / bitrate=1810 / ratetol=1.0 / qcomp=0.60 / qpmin=0 / qpmax=69 / qpstep=4 / cplxblur=20.0 / qblur=0.5 / vbv_maxrate=50000 / vbv_bufsize=62500 / nal_hrd=none / filler=0 / ip_ratio=1.40 / aq=1:0.80
Language : English
Default : Yes
Forced : No
Color range : Limited
Color primaries : BT.709
Matrix coefficients : BT.709
Audio #1
ID : 2
Format : AC-3
Format/Info : Audio Coding 3
Commercial name : Dolby Digital
Codec ID : A_AC3
Duration : 1 h 51 min
Bit rate mode : Constant
Bit rate : 384 kb/s
Channel(s) : 6 channels
Channel layout : L R C LFE Ls Rs
Sampling rate : 48.0 kHz
Frame rate : 31.250 FPS (1536 SPF)
Bit depth : 32 bits
Compression mode : Lossy
Stream size : 305 MiB (15%)
Title : DUB | iTunes
Language : Russian
Service kind : Complete Main
Default : Yes
Forced : No
Audio #2
ID : 3
Format : AC-3
Format/Info : Audio Coding 3
Commercial name : Dolby Digital
Codec ID : A_AC3
Duration : 1 h 50 min
Bit rate mode : Constant
Bit rate : 448 kb/s
Channel(s) : 6 channels
Channel layout : L R C LFE Ls Rs
Sampling rate : 48.0 kHz
Frame rate : 31.250 FPS (1536 SPF)
Bit depth : 32 bits
Compression mode : Lossy
Stream size : 355 MiB (17%)
Title : Original
Language : English
Service kind : Complete Main
Default : No
Forced : No
Text #1
ID : 4
Format : UTF-8
Codec ID : S_TEXT/UTF8
Codec ID/Info : UTF-8 Plain Text
Duration : 1 h 45 min
Bit rate : 70 b/s
Count of elements : 1232
Stream size : 54.5 KiB (0%)
Title : Full
Language : Russian
Default : No
Forced : No
Text #2
ID : 5
Format : UTF-8
Codec ID : S_TEXT/UTF8
Codec ID/Info : UTF-8 Plain Text
Duration : 1 h 40 min
Bit rate : 40 b/s
Count of elements : 1066
Stream size : 29.8 KiB (0%)
Title : Full
Language : English
Default : No
Forced : No
Menu
00:00:00.000 : :Chapter 01
00:09:22.395 : :Chapter 02
00:21:25.409 : :Chapter 03
00:36:21.971 : :Chapter 04
00:46:47.680 : :Chapter 05
00:57:44.836 : :Chapter 06
01:14:35.513 : :Chapter 07
01:46:29.133 : :Chapter 08
Релиз от: &
Автор релиза:
pb.wtf



Скачать Проклятие ведьмы через торрент https://i114.fastpic.ru/big/2021/0209/65/e72def447f93a2877ed594d2a82a1365.jpg Скачать фильм Проклятие ведьмы через торрент бесплантно в хорошем качестве Описание: XVII век. Времена чумы и безжалостной охоты на ведьм. Дьявол протягивает руку помощи девушке, попавшей в заточение Святой ... 10 10 9
Торрент: Зарегистрирован [2021-04-07 17:08] · скачан: 125 раз
Статус: √ проверено
Размер: 2.05 GB
Как cкачать? Как скачать Проклятие ведьмы через торрент | UTorrent

28-11-2019 20:33  

Отключить всю рекламу на сайте

    Дорогой пользователь! Огромная просьба, поблагодарите релизера, оцените раздачу и оставьте свои комментарий, если Вы скачали Проклятие ведьмы через торрент бесплатно! Внесите свою лепту в развитие PiratBit!
    Комментировать посты могут только пользователи прошедшие не сложную регистрацию
    Показать сообщения:    

    Проклятие ведьмы через торрент
    Скачать бесплатно Проклятие ведьмы
    Проклятие ведьмы скачать торрент
    Проклятие ведьмы смотреть онлайн
    Cкачать фильм Проклятие ведьмы бесплатно
    Проклятие ведьмы скачать торрент в хорошем качестве
    Проклятие ведьмы смотреть онлайн бесплатно в хорошем качестве


    Вы не можете начинать темы
    Вы не можете отвечать на сообщения
    Вы не можете редактировать свои сообщения
    Вы не можете удалять свои сообщения
    Вы не можете голосовать в опросах
    Вы не можете прикреплять файлы к сообщениям
    Вы можете скачивать файлы