Присоединяйтесь к нам в Telegram!, здесь всегда актуальный адрес сайта, оперативная поддержка и многое другое!!

>

5.9

iTunes

7.4

iTunes

9.4

1 сезон

1

7.4

2 сезон

7.2

iTunes

7.3

1 сезон

13

6.1

iTunes

8.3

GOG

30

ULTIMATE

pack

9.9

Лицензия

ВАЖНО

ИГРА 18+

pack

7.3

RePack

MK11

7.7

RePack

jed

7.8

RePack

fifa19

8.5

RePack

RDR2

RePack

NEED FOR SPEED™ PAYBACK

5 сезон

9 сезон

Бесстыжие 9 сезон

Все сериалы

все сериалы на PB.wtf

RePack

FAR CRY 5

Anonymous, добрый день, мы катастрофически не успеваем собрать деньги на оплату серверов, помогите нам пожалуйста 5,10,15р., для нас важна любая помощь . В качестве благодарности мы отключим Вам всю рекламу на сайте (укажите свой ник в строку Ваше имя)!

×
  
Magnet ссылка

Девушка, которая боялась дождя / Fear of Rain (Кастилло Лэндон) [2021, Триллер, драма, HDRip-AVC] [DUB] [iTunes] от MediaBit pb.wtf

Девушка, которая боялась дождя через торрент pb.wtf

Раздают: 2 [ 0 KB/s ]
Размер: 2.05 GB | Добавлен: 9 мес. назад | Торрент скачан:224 раза
Смотреть онлайн Девушка, которая боялась дождя | Скачать    Ребята, помогите собрать деньги на оплату серверов!!!

13-02-2021 04:07 Девушка, которая боялась дождя Скачать торрент  


Девушка, которая боялась дождя / Fear of Rain
Информация о фильме:
Название: Девушка, которая боялась дождя
Оригинальное название: Fear of Rain
Год выхода: 2021
Жанр: Триллер, драма
Режиссер: Кастилло Лэндон

В ролях: Мэдисон Айсмен, Израэль Бруссар, Гарри Конник мл., Кэтрин Хайгл, Эжени Бондюран, Энука Окума, Джулия Васи, Линдсэй Ламб, Брайан Янг, Бьянка Д’Амброзио

Описание: Старшеклассница Рэйн страдает шизофренией. После очередного обострения она пытается вернуться к нормальной жизни, но школьные подруги больше не хотят с ней общаться, зато Рэйн знакомится с симпатичным новым одноклассником Калебом. Пока девушка мучительно воюет с болезнью, пытаясь отличить галлюцинации от реальности, она начинает подозревать, что её соседка — учительница мисс МакКоннелл — похитила и удерживает маленькую девочку.



Страна: США
Студия: BuzzFeed.com, Hungry Bull Productions, Mirror Image Films, Pinstripe Productions, Sweet Tomato Films, Zero Gravity Management
Продолжительность: 01:49:02
Перевод: Профессиональный (полное дублирование) - iTunes



Информация о файле:
Кодек: AVC
Формат: MKV
Качество: HDRip-AVC
Видео: MPEG-4 AVC, 1024x554, 23,976 fps, 1858 kbps
Аудио RU: AC3, 6 ch, 48 kHz, 384 kbps
Аудио EN: AC3, 6 ch, 48 kHz, 448 kbps
Субтитры: Russian (Full), English
Навигация по главам: Да

x264 info: frame I:1079 Avg QP:13.91 size: 74555
x264 info: frame P:35965 Avg QP:17.55 size: 21760
x264 info: frame B:119796 Avg QP:20.77 size: 5451
x264 info: consecutive B-frames: 2.7% 3.5% 12.0% 17.4% 17.7% 34.0% 6.1% 3.0% 2.3% 0.2% 0.3% 0.3% 0.7%
x264 info: mb I I16..4: 13.1% 66.1% 20.9%
General
Unique ID : 23417040702787746264812376914324241155 (0x119DF53ED287264E643C583D5A663B03)
Complete name : D:uTorrentРипы_от_wolf1245_MediaBitFear of Rain.2020.DUB.HDRip-AVC_wolf1245_MediaBit.mkv
Format : Matroska
Format version : Version 4
File size : 2.05 GiB
Duration : 1 h 49 min
Overall bit rate : 2 688 kb/s
Movie name : Fear of Rain.2020.DUB.HDRip-AVC_wolf1245_MediaBit
Encoded date : UTC 2021-02-13 03:54:31
Writing application : mkvmerge v53.0.0 ('Fool's Gold') 64-bit
Writing library : libebml v1.4.1 + libmatroska v1.6.2
Video
ID : 1
Format : AVC
Format/Info : Advanced Video Codec
Format profile : High@L4.1
Format settings : CABAC / 12 Ref Frames
Format settings, CABAC : Yes
Format settings, Reference frames : 12 frames
Codec ID : V_MPEG4/ISO/AVC
Duration : 1 h 49 min
Bit rate : 1 858 kb/s
Width : 1 024 pixels
Height : 554 pixels
Display aspect ratio : 1.85:1
Frame rate mode : Constant
Frame rate : 23.976 (24000/1001) FPS
Color space : YUV
Chroma subsampling : 4:2:0
Bit depth : 8 bits
Scan type : Progressive
Bits/(Pixel*Frame) : 0.137
Stream size : 1.41 GiB (69%)
Title : _wolf1245_MediaBit
Writing library : x264 core 157 r2958 57baac4
Encoding settings : cabac=1 / ref=12 / deblock=1:-3:-3 / analyse=0x3:0x133 / me=umh / subme=11 / psy=1 / psy_rd=1.05:0.05 / mixed_ref=1 / me_range=48 / chroma_me=1 / trellis=2 / 8x8dct=1 / cqm=0 / deadzone=21,11 / fast_pskip=1 / chroma_qp_offset=-3 / threads=10 / lookahead_threads=2 / sliced_threads=0 / nr=0 / decimate=1 / interlaced=0 / bluray_compat=0 / constrained_intra=0 / bframes=12 / b_pyramid=2 / b_adapt=2 / b_bias=0 / direct=3 / weightb=1 / open_gop=0 / weightp=2 / keyint=240 / keyint_min=24 / scenecut=40 / intra_refresh=0 / rc_lookahead=100 / rc=2pass / mbtree=1 / bitrate=1858 / ratetol=1.0 / qcomp=0.60 / qpmin=0 / qpmax=69 / qpstep=4 / cplxblur=20.0 / qblur=0.5 / vbv_maxrate=50000 / vbv_bufsize=62500 / nal_hrd=none / filler=0 / ip_ratio=1.40 / aq=1:0.80
Language : English
Default : Yes
Forced : No
Color range : Limited
Color primaries : BT.709
Transfer characteristics : BT.709
Matrix coefficients : BT.709
Audio #1
ID : 2
Format : AC-3
Format/Info : Audio Coding 3
Commercial name : Dolby Digital
Codec ID : A_AC3
Duration : 1 h 49 min
Bit rate mode : Constant
Bit rate : 384 kb/s
Channel(s) : 6 channels
Channel layout : L R C LFE Ls Rs
Sampling rate : 48.0 kHz
Frame rate : 31.250 FPS (1536 SPF)
Compression mode : Lossy
Stream size : 299 MiB (14%)
Title : DUB | iTunes
Language : Russian
Service kind : Complete Main
Default : Yes
Forced : No
Audio #2
ID : 3
Format : AC-3
Format/Info : Audio Coding 3
Commercial name : Dolby Digital
Codec ID : A_AC3
Duration : 1 h 49 min
Bit rate mode : Constant
Bit rate : 448 kb/s
Channel(s) : 6 channels
Channel layout : L R C LFE Ls Rs
Sampling rate : 48.0 kHz
Frame rate : 31.250 FPS (1536 SPF)
Compression mode : Lossy
Stream size : 349 MiB (17%)
Title : Original
Language : English
Service kind : Complete Main
Default : No
Forced : No
Text #1
ID : 4
Format : UTF-8
Codec ID : S_TEXT/UTF8
Codec ID/Info : UTF-8 Plain Text
Duration : 1 h 43 min
Bit rate : 76 b/s
Count of elements : 1488
Stream size : 58.1 KiB (0%)
Title : Full
Language : Russian
Default : No
Forced : No
Text #2
ID : 5
Format : UTF-8
Codec ID : S_TEXT/UTF8
Codec ID/Info : UTF-8 Plain Text
Duration : 1 h 40 min
Bit rate : 51 b/s
Count of elements : 1190
Stream size : 37.9 KiB (0%)
Title : Full
Language : English
Default : No
Forced : No
Text #3
ID : 6
Format : UTF-8
Codec ID : S_TEXT/UTF8
Codec ID/Info : UTF-8 Plain Text
Duration : 1 h 45 min
Bit rate : 58 b/s
Count of elements : 1393
Stream size : 44.8 KiB (0%)
Title : SDH
Language : English
Default : No
Forced : No
Menu
00:00:00.000 : :Chapter 01
00:05:26.201 : :Chapter 02
00:12:52.814 : :Chapter 03
00:18:18.514 : :Chapter 04
00:25:00.541 : :Chapter 05
00:30:33.457 : :Chapter 06
00:37:22.073 : :Chapter 07
00:44:46.100 : :Chapter 08
00:53:12.731 : :Chapter 09
00:58:59.828 : :Chapter 10
01:05:07.445 : :Chapter 11
01:12:19.835 : :Chapter 12
01:18:57.441 : :Chapter 13
01:24:32.234 : :Chapter 14
01:29:01.628 : :Chapter 15
01:40:44.664 : :Chapter 16
Релиз от: & &
pb.wtf



Скачать Девушка, которая боялась дождя через торрент https://i114.fastpic.ru/big/2021/0212/58/399d12db9d7498fee6ea8183b4e55b58.jpg Скачать, смотреть онлайн Девушка, которая боялась дождя бесплантно в хорошем качестве Описание: Старшеклассница Рэйн страдает шизофренией. После очередного обострения она пытается вернуться к нормальной жизни, но школьные ... 10 10 2
Торрент: Зарегистрирован [2021-02-13 04:07] · скачан: 224 раз
Статус: √ проверено
Размер: 2.05 GB
Как cкачать? Как скачать Девушка, которая боялась дождя через торрент | UTorrent



Последний раз редактировалось: Lithuania (2021-02-15 07:56), всего редактировалось 1 раз

28-11-2019 20:33  

Отключить всю рекламу на сайте

    Дорогой пользователь! Огромная просьба, поблагодарите релизера, оцените раздачу и оставьте свои комментарий, если Вы скачали Девушка, которая боялась дождя через торрент бесплатно!
    Комментировать посты могут только пользователи прошедшие не сложную регистрацию
    Показать сообщения:    

    Девушка, которая боялась дождя через торрент
    Скачать бесплатно Девушка, которая боялась дождя
    Девушка, которая боялась дождя скачать торрент
    Девушка, которая боялась дождя смотреть онлайн
    Cкачать фильм Девушка, которая боялась дождя бесплатно
    Девушка, которая боялась дождя скачать торрент в хорошем качестве
    Девушка, которая боялась дождя смотреть онлайн бесплатно в хорошем качестве


    Вы не можете начинать темы
    Вы не можете отвечать на сообщения
    Вы не можете редактировать свои сообщения
    Вы не можете удалять свои сообщения
    Вы не можете голосовать в опросах
    Вы не можете прикреплять файлы к сообщениям
    Вы можете скачивать файлы