2 сезон

iTunes

WEBRip

1

2 сезон

iTunes

1 сезон

1 сезон

RePack

30

Ultimate

ВАЖНО

ИГРА 18+

pack

RePack

MK11
pack

Легкие деньги

RePack

jed

RePack

fifa19

RePack

RDR2

RePack

NEED FOR SPEED™ PAYBACK

4 сезон

9 сезон

Бесстыжие 9 сезон

Все сериалы

все сериалы на PB.wtf

RePack

FAR CRY 5

Anonymous, доброе утро, мы не успеваем собрать деньги на оплату серверов за февраль, помогите нам пожалуйста в это трудное время. В качестве благодарности мы отключим Вам всю рекламу на сайте (укажите свой ник в строку Ваше имя)!

×
  
Magnet ссылка

UFC 258: Usman vs. Burns / Prelims & Main Card [14.02.2021, MMA, RU, UFC ТВ HD, IPTVRip 1080p] pb.wtf

UFC 258: Usman vs. Burns через торрент pb.wtf

Раздают: 1 [ 0 KB/s ]
Размер: 13.63 GB | Добавлен: 17 д. назад | Торрент скачан:20 раз
Скачать  

14-02-2021 08:17 UFC 258: Usman vs. Burns Скачать торрент  

UFC 258: Usman vs. Burns / Prelims & Main Card
Год выпуска: 14.02.2021
Вид спорта: MMA
Продолжительность: 04:52:31
Язык комментариев: Русский
Комментаторы: Олег Володин, Давид Багдасарян
Выпущено: Россия, UFC ТВ HD

Описание: 14 февраля в Лас-Вегасе (Невада, США) на фирменной арене «UFC APEX» состоялся номерной турнир UFC 258. Главным событием которого стал бой в в полусреднем весе за титул чемпиона между Камару Усманом и Гилбертом Бернс. Усман – действующий чемпион полусреднего дивизиона и уже провел две успешные защиты титула против Колби Ковингтона и Хорхе Масвидаля. Бразилец, Гилберт Бернс, до недавнего времени выступавший с переменным успехом в легком весе, после перехода на категорию выше за короткий срок смог стать претендентом № 1. Однако, по мнению букмекеров и экспертов навыков Бернса все равно не хватит для победы над Нигерийским Кошмаром.

Автор релиза:
Реклама: Отсутствует

Качество: IPTVRip 1080p
Формат: MKV

Видео: MPEG-4 AVC, 1920x1080, ~ 6500 Кбит/с, 25.000 FPS
Аудио: AC3, 2 ch, 192 Кбит/с, 48.0 kHz
Предварительный кард:

Промежуточный вес: Андре Эвелл - Крис Гутиеррез
Женщины, минимальный вес: Полиана Виана - Маллори Мартин
Полусредний вес: Белал Мухаммад - Диего Лима
Средний вес: Родолфо Виейра - Энтони Хернандез

Основной кард:

Средний вес: Маки Питоло - Джулиан Маркез
Полулёгкий вес: Рики Симон - Брайэн Келлехер
Средний вес: Келвин Гастелум - Йен Хейниш
Женщины, наилегчайший вес: Мэйси Барбер - Алекса Грассо
Полусредний вес: Камару Усман - Гилберт Бёрнс
скриншот  скриншот  скриншот  скриншот  
Общее
Уникальный идентификатор : 66991068987333901438814314148879796721 (0x326602B52B4CFDF11282D32C3EC609F1)
Полное имя : D:\UFC.258.(14.02.2021).(1080p).7turza\01.UFC.258.Predvaritelnyj.Kard.7turza.mkv
Формат : Matroska
Версия формата : Version 4
Размер файла : 5,14 Гбайт
Продолжительность : 1 ч. 50 м.
Режим общего битрейта : Постоянный
Общий поток : 6631 Кбит/сек
Название фильма : 01.UFC.258.Predvaritelnyj.Kard.7turza
Дата кодирования : UTC 2021-02-14 03:29:56
Программа кодирования : mkvmerge v53.0.0 ('Fool's Gold') 64-bit
Библиотека кодирования : libebml v1.4.1 + libmatroska v1.6.2
Attachments : poster.jpg

Видео
Идентификатор : 1
Формат : AVC
Формат/Информация : Advanced Video Codec
Профиль формата : Main@L4.1
Настройки формата : CABAC / 2 Ref Frames
Параметр CABAC формата : Да
Параметр RefFrames формата : 2 кадра
Идентификатор кодека : V_MPEG4/ISO/AVC
Продолжительность : 1 ч. 50 м.
Вид битрейта : Постоянный
Битрейт : 6499 Кбит/сек / 6563 Кбит/сек
Ширина : 1920 пикселей
Высота : 1080 пикселей
Соотношение сторон : 16:9
Режим частоты кадров : Постоянный
Частота кадров : 25,000 кадров/сек
Цветовое пространство : YUV
Субдискретизация насыщенности : 4:2:0
Битовая глубина : 8 бит
Тип развёртки : Прогрессивная
Бит/(Пиксели*Кадры) : 0.125
Размер потока : 4,99 Гбайт (97%)
Библиотека кодирования : x264 core 160 r3000
Настройки программы : cabac=1 / ref=2 / deblock=1:0:0 / analyse=0x1:0x111 / me=hex / subme=4 / psy=1 / psy_rd=1.00:0.00 / mixed_ref=0 / me_range=16 / chroma_me=1 / trellis=1 / 8x8dct=0 / cqm=0 / deadzone=21,11 / fast_pskip=1 / chroma_qp_offset=0 / threads=4 / lookahead_threads=1 / sliced_threads=0 / nr=0 / decimate=1 / interlaced=tff / bluray_compat=0 / constrained_intra=0 / bframes=0 / weightp=0 / keyint=100 / keyint_min=10 / scenecut=0 / intra_refresh=0 / rc_lookahead=20 / rc=abr / mbtree=1 / bitrate=6563 / ratetol=1.0 / qcomp=0.60 / qpmin=0 / qpmax=69 / qpstep=4 / vbv_maxrate=6564 / vbv_bufsize=13000 / nal_hrd=none / filler=0 / ip_ratio=1.40 / aq=1:1.00
Язык : Russian
Default : Да
Forced : Нет

Аудио
Идентификатор : 2
Формат : AC-3
Формат/Информация : Audio Coding 3
Коммерческое название : Dolby Digital
Идентификатор кодека : A_AC3
Продолжительность : 1 ч. 50 м.
Вид битрейта : Постоянный
Битрейт : 192 Кбит/сек
Каналы : 2 канала
ChannelLayout : L R
Частота : 48,0 КГц
Частота кадров : 31,250 кадров/сек (1536 SPF)
Метод сжатия : С потерями
Размер потока : 152 Мбайт (3%)
Язык : Russian
ServiceKind/String : Complete Main
Default : Да
Forced : Нет
pb.wtf



Скачать UFC 258: Usman vs. Burns через торрент https://c.radikal.ru/c25/2102/6e/4cb1626d0255.jpg Скачать фильм UFC 258: Usman vs. Burns через торрент бесплантно в хорошем качестве Описание: 14 февраля в Лас-Вегасе (Невада, США) на фирменной арене «UFC APEX» состоялся номерной турнир UFC 258. Главным событием которого ... 10 10 3
Торрент: Зарегистрирован [2021-02-14 08:18] · скачан: 20 раз
Статус: √ проверено
Размер: 13.63 GB
Как cкачать? Как скачать UFC 258: Usman vs. Burns через торрент | UTorrent

28-11-2019 20:33  

Отключить всю рекламу на сайте

    Дорогой пользователь! Огромная просьба, поблагодарите релизера, оцените раздачу и оставьте свои комментарий, если Вы скачали UFC 258: Usman vs. Burns через торрент бесплатно! Внесите свою лепту в развитие PiratBit!
    Комментировать посты могут только пользователи прошедшие не сложную регистрацию
    Показать сообщения:    

    UFC 258: Usman vs. Burns через торрент
    Скачать бесплатно UFC 258: Usman vs. Burns
    UFC 258: Usman vs. Burns скачать торрент
    UFC 258: Usman vs. Burns смотреть онлайн
    Cкачать фильм UFC 258: Usman vs. Burns бесплатно
    UFC 258: Usman vs. Burns скачать торрент в хорошем качестве
    UFC 258: Usman vs. Burns смотреть онлайн бесплатно в хорошем качестве


    Вы не можете начинать темы
    Вы не можете отвечать на сообщения
    Вы не можете редактировать свои сообщения
    Вы не можете удалять свои сообщения
    Вы не можете голосовать в опросах
    Вы не можете прикреплять файлы к сообщениям
    Вы можете скачивать файлы