Присоединяйтесь к нам в Telegram!, здесь всегда актуальный адрес сайта, оперативная поддержка и многое другое!!

>

5.9

iTunes

7.4

iTunes

9.4

1 сезон

1

7.4

2 сезон

7.2

iTunes

7.3

1 сезон

13

6.1

iTunes

8.3

GOG

30

ULTIMATE

pack

9.9

Лицензия

ВАЖНО

ИГРА 18+

pack

7.3

RePack

MK11

7.7

RePack

jed

7.8

RePack

fifa19

8.5

RePack

RDR2

RePack

NEED FOR SPEED™ PAYBACK

5 сезон

9 сезон

Бесстыжие 9 сезон

Все сериалы

все сериалы на PB.wtf

RePack

FAR CRY 5

Anonymous, добрый день, мы катастрофически не успеваем собрать деньги на оплату серверов, помогите нам пожалуйста 5,10,15р., для нас важна любая помощь . В качестве благодарности мы отключим Вам всю рекламу на сайте (укажите свой ник в строку Ваше имя)!

×
  
Magnet ссылка

Девушка, которая боялась дождя / Fear of Rain (Кастилло Лэндон) [2021 г., триллер, драма, HDRip, Дубляж "iTunes"] pb.wtf

Девушка, которая боялась дождя через торрент pb.wtf

Раздают: 1 [ 0 KB/s ]
Размер: 724 MB | Добавлен: 9 мес. назад | Торрент скачан:35 раз
Смотреть онлайн Девушка, которая боялась дождя | Скачать    Ребята, помогите собрать деньги на оплату серверов!!!

14-02-2021 18:45 Девушка, которая боялась дождя Скачать торрент  

Девушка которая боялась дождя / Fear of Rain
Год выпуска: 2021
Страна: США / Sweet Tomato Films, Zero Gravity Management, Buzzfeed
Жанр: триллер, драма
Продолжительность: 01:49:01
Перевод: Дубляж (iTunes)
Субтитры: русские форсированные - вшитые
« Есть голоса, от которых не убежишь.»
Режиссер: Кастилло Лэндон

rating

В ролях: Мэдисон Айсмен, Израэль Бруссар, Гарри Конник мл., Кэтрин Хайгл, Эжени Бондюран, Энука Окума, Джулия Васи, Линдсэй Ламб, Брайан Янг, Бьянка Д’Амброзио

Описание: Старшеклассница Рэйн страдает шизофренией. После очередного обострения она пытается вернуться к нормальной жизни, но школьные подруги больше не хотят с ней общаться, зато Рэйн знакомится с симпатичным новым одноклассником Калебом. Пока девушка мучительно воюет с болезнью, пытаясь отличить галлюцинации от реальности, она начинает подозревать, что её соседка — учительница мисс МакКоннелл — похитила и удерживает маленькую девочку.

Качество: HDRip
Формат: AVI
Видео кодек: DivX
Аудио кодек: MP3
Видео: 640x352 (1.82:1), 23.976 fps, XviD build 50 ~791 kbps avg, 0.15 bit/pixel
Аудио: 48 kHz, MPEG Layer 3, 2 ch, ~128.00 kbps avg








Общее
Полное имя : G:\ФИЛЬМЫ\Девушка, которая боялась дождя.2021.D.HDRip.avi
Формат : AVI
Формат/Информация : Audio Video Interleave
Размер файла : 724 Мбайт
Продолжительность : 1 ч. 49 м.
Общий поток : 929 Кбит/сек
Программа кодирования : VirtualDubMod 1.5.10.3 | www.virtualdub-fr.org || (build 2550/release)
Библиотека кодирования : VirtualDubMod build 2550/release

Видео
Идентификатор : 0
Формат : MPEG-4 Visual
Профиль формата : Advanced Simple@L5
Настройки формата : BVOP2
Параметр BVOP формата : 2
Параметр QPel формата : Нет
Параметр GMC формата : Без точки перехода
Параметр матрицы формата : Default (MPEG)
Идентификатор кодека : XVID
Идентификатор кодека/Подсказка : XviD
Продолжительность : 1 ч. 49 м.
Битрейт : 792 Кбит/сек
Ширина : 640 пикселей
Высота : 352 пикселя
Соотношение сторон : 16:9
Частота кадров : 23,976 (24000/1001) кадра/сек
Цветовое пространство : YUV
Субдискретизация насыщенности : 4:2:0
Битовая глубина : 8 бит
Тип развёртки : Прогрессивная
Метод сжатия : С потерями
Бит/(Пиксели*Кадры) : 0.147
Размер потока : 617 Мбайт (85%)
Библиотека кодирования : XviD 1.2.1 (UTC 2008-12-04)

Аудио
Идентификатор : 1
Формат : MPEG Audio
Версия формата : Version 1
Профиль формата : Layer 3
Настройки формата : Joint stereo
Идентификатор кодека : 55
Идентификатор кодека/Подсказка : MP3
Продолжительность : 1 ч. 49 м.
Вид битрейта : Постоянный
Битрейт : 128 Кбит/сек
Каналы : 2 канала
Частота : 48,0 КГц
Частота кадров : 41,667 кадра/сек (1152 SPF)
Метод сжатия : С потерями
Размер потока : 99,8 Мбайт (14%)
Выравнивание : Соединение по промежуткам
Продолжительность промежутка : 42 мс. (1,00 видеокадр)
Время предзагрузки промежутка : 504 мс.
Библиотека кодирования : LAME3.99r
Настройки программы : -m j -V 4 -q 2 -lowpass 17 -b 128

pb.wtf



Скачать Девушка, которая боялась дождя через торрент https://c.radikal.ru/c00/2102/45/780aafeb70b6.jpg Скачать, смотреть онлайн Девушка, которая боялась дождя бесплантно в хорошем качестве Описание: Старшеклассница Рэйн страдает шизофренией. После очередного обострения она пытается вернуться к нормальной жизни, но школьные ... 10 10 1
Торрент: Зарегистрирован [2021-02-14 18:45] · скачан: 35 раз
Статус: √ проверено
Размер: 724 MB
Как cкачать? Как скачать Девушка, которая боялась дождя через торрент | UTorrent

% Раздел Тема Автор DL S | L
Фильмы 2021 [DVDrip, WEB-DLRip, HDrip] (DUB, MVO) [ 1.41 GB ] Девушка которая боялась дождя / Fear of Rain [2021 BDRip] - Twi7ter Скачать
131 | 1
Фильмы 2021 [DVDrip, WEB-DLRip, HDrip] (DUB, MVO) [ 1.41 GB ] Девушка которая боялась дождя / Fear of Rain [2021 BDRip] bober100 Скачать
2 | 0
Фильмы [HD 720p, 1080p] (Хороший звук DUB, MVO) [ 6.7 GB ] Девушка которая боялась дождя / Fear of Rain [2021 BDRip 720p] bober100 Скачать
1 | 0
Фильмы [HD 720p, 1080p] (Хороший звук DUB, MVO) [ 11.74 GB ] Девушка которая боялась дождя / Fear of Rain [2021 BDRip 1080p] bober100 Скачать
2 | 0
Фильмы 2021 [DVDrip, WEB-DLRip, HDrip] (DUB, MVO) [ 2.05 GB ] Девушка которая боялась дождя / Fear of Rain [2021 HDRip-AVC] от MediaBit Lithuania Скачать
3 | 0
Фильмы 2021 [DVDrip, WEB-DLRip, HDrip] (DUB, MVO) [ 2.18 GB ] Девушка которая боялась дождя / Fear of Rain [2021 HDRip] () killermax2013 Скачать
1 | 0
Фильмы (Blu-ray, BD-Remux, HDDVD) [ 29.53 GB ] Девушка которая боялась дождя / Fear of Rain [2020 BDRemux 1080p] () killermax2013 Скачать
2 | 0

28-11-2019 20:33  

Отключить всю рекламу на сайте

    Дорогой пользователь! Огромная просьба, поблагодарите релизера, оцените раздачу и оставьте свои комментарий, если Вы скачали Девушка, которая боялась дождя через торрент бесплатно!
    Комментировать посты могут только пользователи прошедшие не сложную регистрацию
    Показать сообщения:    

    Девушка, которая боялась дождя через торрент
    Скачать бесплатно Девушка, которая боялась дождя
    Девушка, которая боялась дождя скачать торрент
    Девушка, которая боялась дождя смотреть онлайн
    Cкачать фильм Девушка, которая боялась дождя бесплатно
    Девушка, которая боялась дождя скачать торрент в хорошем качестве
    Девушка, которая боялась дождя смотреть онлайн бесплатно в хорошем качестве


    Вы не можете начинать темы
    Вы не можете отвечать на сообщения
    Вы не можете редактировать свои сообщения
    Вы не можете удалять свои сообщения
    Вы не можете голосовать в опросах
    Вы не можете прикреплять файлы к сообщениям
    Вы можете скачивать файлы