Достать ножи: Стеклянная луковица

MVO

Добыча

Дубляж

Уэнсдэй

1 сезон

Тор

Дубляж

13 клиническая

1 сезон

Жестокая ночь

MVO

Одни из нас

1 сезон

Deluxe

pack

Рекомендуем

30

Пиратка

ВАЖНО

ВАЖНО

Ghostwire

Пиратка

jed

RePack

nioh2

RePack

RDR2

RePack

NEED FOR SPEED™ PAYBACK

RePack

скачать торрент

Кинопоиск HD

Острые козырьки 6 сезон

6 сезон

FAR CRY 6

RePack

скачать торрент

Лицензия

скачать торрент

MVO

1

1 сезон

скачать торрент

1 сезон

скачать торрент

Лицензия

  

Оно: Дилогия/ It: Dilogy [2017-2019, ужасы, триллер, BDRip - HEVC 1080p 10 bit 60 FPS, Дубляж]

Оно: Дилогия через торрент pb.wtf

Качают: 3 [ 0 KB/s ]
Размер: 10.06 GB | Добавлен: 1 год 11 мес. назад | Торрент скачан:21 раз
| Скачать | Поддержите нас   

15-02-2021 16:27 Оно: Дилогия Скачать торрент  



«Оно́» (англ. It) — роман американского писателя Стивена Кинга, написанный в жанре ужасов, впервые опубликованный в 1986 году издательством Viking Press. В произведении затрагиваются важные для Кинга темы: Влacть памяти, сила объединенной группы, влияние травм детства на взрослую жизнь. Согласно основной сюжетной линии, семеро друзей из вымышленного города Дерри в штате Мэн сражаются с чудовищем, убивающим детей и способным принимать любую физическую форму. Повествование ведётся параллельно в разных временны́х интервалах, один из которых соответствует детству главных героев, а другой — их взрослой жизни.

It«А чего боишься ты?»

Год выпуска: 2017
Страна: США, Канада
Жанр: ужасы, триллер

Продолжительность: 02:14:42
Перевод: Дубляж
Субтитры: русские

Режиссер: Андрес Мускетти

В ролях: Джейден Либерер, Джереми Рэй Тейлор, София Лиллис, Финн Вулфард, Чоузен Джейкобс, Джек Грейзер, Уайатт Олефф, Билл Скарсгард, Николас Хэмилтон, Джейк Сим, Логан Томпсон, Оуэн Тиг, Джексон Роберт Скотт, Стивен Богерт, Стюарт Хьюз и др.

Описание:
Когда в городке Дерри, штат Мэн, начинают пропадать дети, несколько ребят сталкиваются со своими величайшими страхами и вынуждены помериться силами со злобным клоуном Пеннивайзом, чьи проявления жестокости и список жертв уходят в глубь веков.

Мировая премьера: 5 сентября 2017


Качество: BDRip 1080p by DD2D3
Формат: MKV
Видео кодек: V_MPEGH/ISO/HEVC
Аудио кодек: AC3
Видео: V_MPEGH/ISO/HEVC;1920x800 (2.40:1); 4003 Kbps; 59,940 fps; 0,043 bpp
Аудио: русский; AC3; 448 Kbps; CBR; 6 ch
Навигация по главам: есть



General
Unique ID : 215344798034388234692928488161186584345 (0xA201E644FE214A3B929B87E07E3E9719)
Complete name : D:\It Dilogy (2017-2019) BDRip - HEVC 1080p 10 bit 60 FPS\It (2017) BDRip - HEVC 1080p 10 bit 60 FPS.mkv
Format : Matroska
Format version : Version 4
File size : 4.19 GiB
Duration : 2 h 14 min
Overall bit rate : 4 457 kb/s
Movie name : Rip by from DD2D3
Encoded date : UTC 2021-02-15 15:03:41
Writing application : mkvmerge v10.0.0 ('To Drown In You') 32bit
Writing library : libebml v1.3.4 + libmatroska v1.4.5
Attachments : poster

Video
ID : 1
Format : HEVC
Format/Info : High Efficiency Video Coding
Format profile : Main [email protected]@Main
Codec ID : V_MPEGH/ISO/HEVC
Duration : 2 h 14 min
Bit rate : 4 003 kb/s
Width : 1 920 pixels
Height : 800 pixels
Display aspect ratio : 2.40:1
Frame rate mode : Constant
Frame rate : 59.940 (60000/1001) FPS
Color space : YUV
Chroma subsampling : 4:2:0
Bit depth : 10 bits
Bits/(Pixel*Frame) : 0.043
Stream size : 3.77 GiB (90%)
Writing library : x265 2.3+33-0b7d54dbb71a87a0:[Windows][MSVC 1800][64 bit] 10bit: KG7x [x265.ru]
Encoding settings : cpuid=1173503 / frame-threads=2 / numa-pools=4 / wpp / no-pmode / no-pme / no-psnr / no-ssim / log-level=2 / input-csp=1 / input-res=1920x800 / interlace=0 / total-frames=484456 / level-idc=41 / high-tier=1 / uhd-bd=0 / ref=3 / no-allow-non-conformance / no-repeat-headers / annexb / no-aud / no-hrd / info / hash=0 / no-temporal-layers / open-gop / min-keyint=25 / keyint=250 / bframes=4 / b-adapt=2 / b-pyramid / bframe-bias=0 / rc-lookahead=20 / lookahead-slices=5 / scenecut=40 / no-intra-refresh / ctu=64 / min-cu-size=8 / no-rect / no-amp / max-tu-size=32 / tu-inter-depth=1 / tu-intra-depth=1 / limit-tu=0 / rdoq-level=0 / dynamic-rd=0.00 / no-ssim-rd / signhide / no-tskip / nr-intra=0 / nr-inter=0 / no-constrained-intra / strong-intra-smoothing / max-merge=2 / limit-refs=3 / no-limit-modes / me=1 / subme=2 / merange=57 / temporal-mvp / weightp / no-weightb / no-analyze-src-pics / deblock=0:0 / sao / no-sao-non-deblock / rd=3 / no-early-skip / rskip / no-fast-intra / no-tskip-fast / no-cu-lossless / no-b-intra / rdpenalty=0 / psy-rd=2.00 / psy-rdoq=0.00 / no-rd-refine / analysis-mode=0 / no-lossless / cbqpoffs=0 / crqpoffs=0 / rc=abr / bitrate=4000 / qcomp=0.60 / qpstep=4 / stats-write=0 / stats-read=2 / cplxblur=20.0 / qblur=0.5 / ipratio=1.40 / pbratio=1.30 / aq-mode=1 / aq-strength=1.00 / cutree / zone-count=0 / no-strict-cbr / qg-size=32 / no-rc-grain / qpmax=69 / qpmin=0 / sar=1 / overscan=0 / videoformat=5 / range=0 / colorprim=2 / transfer=2 / colormatrix=2 / chromaloc=0 / display-window=0 / max-cll=0,0 / min-luma=0 / max-luma=1023 / log2-max-poc-lsb=8 / vui-timing-info / vui-hrd-info / slices=1 / opt-qp-pps / opt-ref-list-length-pps / no-multi-pass-opt-rps / scenecut-bias=0.05 / no-opt-cu-delta-qp / no-aq-motion / no-hdr / no-hdr-opt / refine-level=5 / no-limit-sao
Default : Yes
Forced : No

Audio
ID : 2
Format : AC-3
Format/Info : Audio Coding 3
Commercial name : Dolby Digital
Codec ID : A_AC3
Duration : 2 h 14 min
Bit rate mode : Constant
Bit rate : 448 kb/s
Channel(s) : 6 channels
Channel layout : L R C LFE Ls Rs
Sampling rate : 48.0 kHz
Frame rate : 31.250 FPS (1536 SPF)
Compression mode : Lossy
Stream size : 432 MiB (10%)
Title : Дубляж | DD 5.1 @ 448 kbps -
Language : Russian
Service kind : Complete Main
Default : Yes
Forced : No

Text
ID : 3
Format : UTF-8
Codec ID : S_TEXT/UTF8
Codec ID/Info : UTF-8 Plain Text
Duration : 2 h 8 min
Bit rate : 64 b/s
Count of elements : 1209
Stream size : 60.7 KiB (0%)
Title : iTunes
Language : Russian
Default : No
Forced : No

Menu
00:00:00.000 : en:Chapter 1
00:09:23.646 : en:Chapter 2
00:18:31.860 : en:Chapter 3
00:28:26.162 : en:Chapter 4
00:38:36.981 : en:Chapter 5
00:48:19.438 : en:Chapter 6
00:59:30.775 : en:Chapter 7
01:08:52.795 : en:Chapter 8
01:16:58.822 : en:Chapter 9
01:26:52.957 : en:Chapter 10
01:38:15.306 : en:Chapter 11
01:48:40.972 : en:Chapter 12
02:04:07.898 : en:Chapter 13
02:09:05.654 : en:Chapter 14


скриншот   скриншот   скриншот   скриншот  






It Chapter Two«You'll Float Again»

Год выпуска: 2019
Страна: США, Канада
Жанр: ужасы, триллер

Продолжительность: 02:49:26
Перевод: Дубляж
Субтитры: русские

Режиссер: Андрес Мускетти

В ролях: Джессика Честейн, Джеймс МакЭвой, Билл Хэйдер, Айзая Мустафа, Джей Райан, Джеймс Рэнсон, Энди Бин, Билл Скарсгард, Джейден Мартелл, Уайатт Олефф и др.

Описание:
Проходит 27 лет после первой встречи ребят с демоническим Пеннивайзом. Они выросли, покинули родной городок и практически забыли о тех страшных событиях, но неожиданно в их взрослые проблемы вторгается телефонный звонок. Майк никогда не покидал Дерри и всё это время собирал информацию о жутком клоуне и ждал. Когда в городе начали происходить новые убийства, Майк просит старых друзей вновь собраться вместе и разобраться со злом города Дерри раз и навсегда.

Мировая премьера: 26 августа 2019


Качество: WeBRip 1080p by DD2D3
Формат: MKV
Видео кодек: V_MPEGH/ISO/HEVC
Аудио кодек: AC3
Видео: V_MPEGH/ISO/HEVC; 1920x1080 (16:9); 4504 Kbps; 59,940 fps; 0,036 bpp
Аудио: русский; AC3; 448 Kbps; CBR; 6 ch
Навигация по главам: нет



General
Unique ID : 192498088668139774327523684967085240888 (0x90D1C887AE56E4D19775565BA8CFF238)
Complete name : D:\It Dilogy (2017-2019) BDRip - HEVC 1080p 10 bit 60 FPS\It Chapter Two [Open Matte] (2019) BDRip - HEVC 1080p 10 bit 60 FPS.mkv
Format : Matroska
Format version : Version 4
File size : 5.87 GiB
Duration : 2 h 49 min
Overall bit rate : 4 956 kb/s
Movie name : Rip by from DD2D3
Encoded date : UTC 2021-02-15 15:17:38
Writing application : mkvmerge v10.0.0 ('To Drown In You') 32bit
Writing library : libebml v1.3.4 + libmatroska v1.4.5
Attachments : poster

Video
ID : 1
Format : HEVC
Format/Info : High Efficiency Video Coding
Format profile : Main [email protected]@Main
Codec ID : V_MPEGH/ISO/HEVC
Duration : 2 h 49 min
Bit rate : 4 505 kb/s
Width : 1 920 pixels
Height : 1 080 pixels
Display aspect ratio : 16:9
Frame rate mode : Constant
Frame rate : 59.940 (60000/1001) FPS
Color space : YUV
Chroma subsampling : 4:2:0
Bit depth : 10 bits
Bits/(Pixel*Frame) : 0.036
Stream size : 5.33 GiB (91%)
Writing library : x265 2.3+33-0b7d54dbb71a87a0:[Windows][MSVC 1800][64 bit] 10bit: KG7x [x265.ru]
Encoding settings : cpuid=1173503 / frame-threads=2 / numa-pools=4 / wpp / no-pmode / no-pme / no-psnr / no-ssim / log-level=2 / input-csp=1 / input-res=1920x1080 / interlace=0 / total-frames=609171 / level-idc=41 / high-tier=1 / uhd-bd=0 / ref=3 / no-allow-non-conformance / no-repeat-headers / annexb / no-aud / no-hrd / info / hash=0 / no-temporal-layers / open-gop / min-keyint=25 / keyint=250 / bframes=4 / b-adapt=2 / b-pyramid / bframe-bias=0 / rc-lookahead=20 / lookahead-slices=6 / scenecut=40 / no-intra-refresh / ctu=64 / min-cu-size=8 / no-rect / no-amp / max-tu-size=32 / tu-inter-depth=1 / tu-intra-depth=1 / limit-tu=0 / rdoq-level=0 / dynamic-rd=0.00 / no-ssim-rd / signhide / no-tskip / nr-intra=0 / nr-inter=0 / no-constrained-intra / strong-intra-smoothing / max-merge=2 / limit-refs=3 / no-limit-modes / me=1 / subme=2 / merange=57 / temporal-mvp / weightp / no-weightb / no-analyze-src-pics / deblock=0:0 / sao / no-sao-non-deblock / rd=3 / no-early-skip / rskip / no-fast-intra / no-tskip-fast / no-cu-lossless / no-b-intra / rdpenalty=0 / psy-rd=2.00 / psy-rdoq=0.00 / no-rd-refine / analysis-mode=0 / no-lossless / cbqpoffs=0 / crqpoffs=0 / rc=abr / bitrate=4500 / qcomp=0.60 / qpstep=4 / stats-write=0 / stats-read=2 / cplxblur=20.0 / qblur=0.5 / ipratio=1.40 / pbratio=1.30 / aq-mode=1 / aq-strength=1.00 / cutree / zone-count=0 / no-strict-cbr / qg-size=32 / no-rc-grain / qpmax=69 / qpmin=0 / sar=1 / overscan=0 / videoformat=5 / range=0 / colorprim=2 / transfer=2 / colormatrix=2 / chromaloc=0 / display-window=0 / max-cll=0,0 / min-luma=0 / max-luma=1023 / log2-max-poc-lsb=8 / vui-timing-info / vui-hrd-info / slices=1 / opt-qp-pps / opt-ref-list-length-pps / no-multi-pass-opt-rps / scenecut-bias=0.05 / no-opt-cu-delta-qp / no-aq-motion / no-hdr / no-hdr-opt / refine-level=5 / no-limit-sao
Default : Yes
Forced : No

Audio
ID : 2
Format : AC-3
Format/Info : Audio Coding 3
Commercial name : Dolby Digital
Codec ID : A_AC3
Duration : 2 h 49 min
Bit rate mode : Constant
Bit rate : 448 kb/s
Channel(s) : 6 channels
Channel layout : L R C LFE Ls Rs
Sampling rate : 48.0 kHz
Frame rate : 31.250 FPS (1536 SPF)
Compression mode : Lossy
Stream size : 543 MiB (9%)
Title : Дубляж
Language : Russian
Service kind : Complete Main
Default : Yes
Forced : No

Text
ID : 3
Format : UTF-8
Codec ID : S_TEXT/UTF8
Codec ID/Info : UTF-8 Plain Text
Duration : 2 h 48 min
Bit rate : 76 b/s
Count of elements : 2331
Stream size : 94.7 KiB (0%)
Title : Full 1
Language : Russian
Default : No
Forced : No


скриншот   скриншот   скриншот   скриншот  







Скачать Оно: Дилогия через торрент https://funkyimg.com/i/3aPw3.jpg Скачать, смотреть онлайн Оно: Дилогия бесплантно в хорошем качестве Описание: Когда в городке Дерри, штат Мэн, начинают пропадать дети, несколько ребят сталкиваются со своими величайшими страхами и вынуждены ... 10 10 8
Info! Золотая раздача, скачанное не засчитывается.
Торрент: Зарегистрирован [2021-02-15 16:27] · скачан: 21 раз
Статус: √ проверено
Размер: 10.06 GB
Как cкачать? Как скачать Оно: Дилогия через торрент | UTorrent

28-11-2019 20:33  


Отключить вcю реклaмy на сайте, в т.ч. и в плеере онлайн просмотра!

15-02-2021 16:57 Оно: Дилогия Скачать торрент  

где раздача то? дайте кино посмотреть сегодня(((



    Дорогой пользователь! Огромная просьба, поблагодарите релизера, оцените раздачу и оставьте свои комментарий, если Вы скачали Оно: Дилогия через торрент бесплатно!!
    Комментировать посты могут только пользователи прошедшие не сложную регистрацию
    Показать сообщения:    


    Оно: Дилогия через торрент
    Скачать бесплатно Оно: Дилогия
    Оно: Дилогия скачать торрент
    Оно: Дилогия смотреть онлайн
    Cкачать фильм Оно: Дилогия бесплатно
    Оно: Дилогия скачать торрент в хорошем качестве
    Оно: Дилогия смотреть онлайн бесплатно в хорошем качестве
    Вы не можете начинать темы
    Вы не можете отвечать на сообщения
    Вы не можете редактировать свои сообщения
    Вы не можете удалять свои сообщения
    Вы не можете голосовать в опросах
    Вы не можете прикреплять файлы к сообщениям
    Вы можете скачивать файлы
    Оно: Дилогия/ It: Dilogy [2017-2019, ужасы, триллер, BDRip - HEVC 1080p 10 bit 60 FPS, Дубляж] смотреть онлайн, скачать торрент picoco.icu