2 сезон

iTunes

WEBRip

1

2 сезон

iTunes

1 сезон

1 сезон

RePack

30

Ultimate

ВАЖНО

ИГРА 18+

pack

RePack

MK11
pack

Легкие деньги

RePack

jed

RePack

fifa19

RePack

RDR2

RePack

NEED FOR SPEED™ PAYBACK

4 сезон

9 сезон

Бесстыжие 9 сезон

Все сериалы

все сериалы на PB.wtf

RePack

FAR CRY 5

Anonymous, доброе утро, мы не успеваем собрать деньги на оплату серверов за февраль, помогите нам пожалуйста в это трудное время. В качестве благодарности мы отключим Вам всю рекламу на сайте (укажите свой ник в строку Ваше имя)!

×
  
Magnet ссылка

За час до рассвета / Сезон: 1 / Серии: 1-4 из 16 (Игорь Зайцев) [2021, Драма, триллер, детектив, криминал, история, WEB-DLRip] pb.wtf

За час до рассвета через торрент pb.wtf

Раздают: 13 [ 300 KB/s ] Качают: 7 [ 0 KB/s ]
Размер: 2.34 GB | Добавлен: 4 д. назад | Торрент скачан:56 раз
Скачать  

15-02-2021 22:18 За час до рассвета Скачать торрент  

За час до рассвета
Год выпуска: 2021
Страна: Россия
Студия: Art Pictures Vision, Киностудия МИМ по заказу телеканала НТВ
Жанр: Драма, триллер, детектив, криминал, история
Продолжительность: ~ 00:47:00

Режиссер: Игорь Зайцев



В ролях:
Константин Хабенский, Александра Флоринская, Артур Ваха, Артур Смольянинов, Николай Мачульский, Владимир Зайцев, Агния Дитковските, Владимир Чуприков, Иван Агапов, Андрей Бурковский, Евгений Мундум, Артем Быстров, Максим Белбородов, Мария Лисовая, Нина Андронаки, Алена Михайлова, Глеб Бочков, Юлия Акимова, Валерия Вегнер, Стас Румянцев

Описание:
1946 год. Лейтенант Денис Журавлёв возвращается к мирной жизни и устраивается на службу в милицию. Его начальник – майор Шумейко по прозвищу Сатана - человек с тяжёлым характером, но решения поставленных задач добивается любой ценой. Журавлёв появляется в команде как раз вовремя: в городе орудует банда преступника по прозвищу Клещ, и чтобы поймать его, нужен неординарный план, который Журавлёв берётся реализовать. Однако скоро становится очевидно, что война, идущая в мирное время, когда непонятно кто друг, а кто враг, ещё запутаннее, чем война, с которой он только что вернулся.

Качество: WEB-DLRip
Формат: AVI

Видео: 1530 Кбит/сек, 720*400 (16:9), в 25,000 кадров/сек, MPEG-4 Visual (XviD)
Аудио: 192 Кбит/сек, 48,0 КГц, 16 бит, 2 канала, AC-3

Общее
Полное имя : G:\Za.chas.do.rassveta.S01.WEB-DLRip.25Kuzmich\2Za.chas.do.rassveta.s01.e01.WEB-DLRip.25Kuzmich.avi
Формат : AVI
Формат/Информация : Audio Video Interleave
Размер файла : 600 Мбайт
Продолжительность : 48 м. 27 с.
Общий поток : 1732 Кбит/сек
Программа кодирования : VirtualDubMod 1.5.10.3 | www.virtualdub-fr.org || (build 2550/release)
Библиотека кодирования : VirtualDubMod build 2550/release

Видео
Идентификатор : 0
Формат : MPEG-4 Visual
Профиль формата : Advanced Simple@L5
Настройки формата : BVOP1
Параметр BVOP формата : 1
Параметр QPel формата : Нет
Параметр GMC формата : Без точки перехода
Параметр матрицы формата : Default (MPEG)
Идентификатор кодека : XVID
Идентификатор кодека/Подсказка : XviD
Продолжительность : 48 м. 27 с.
Битрейт : 1530 Кбит/сек
Ширина : 720 пикселей
Высота : 400 пикселей
Соотношение сторон : 16:9
Частота кадров : 25,000 кадров/сек
Цветовое пространство : YUV
Субдискретизация насыщенности : 4:2:0
Битовая глубина : 8 бит
Тип развёртки : Прогрессивная
Метод сжатия : С потерями
Бит/(Пиксели*Кадры) : 0.212
Размер потока : 530 Мбайт (88%)
Библиотека кодирования : XviD 73

Аудио
Идентификатор : 1
Формат : AC-3
Формат/Информация : Audio Coding 3
Коммерческое название : Dolby Digital
Идентификатор кодека : 2000
Продолжительность : 48 м. 27 с.
Вид битрейта : Постоянный
Битрейт : 192 Кбит/сек
Каналы : 2 канала
ChannelLayout : L R
Частота : 48,0 КГц
Частота кадров : 31,250 кадров/сек (1536 SPF)
Битовая глубина : 16 бит
Метод сжатия : С потерями
Размер потока : 66,6 Мбайт (11%)
Выравнивание : Разделение по промежуткам
Продолжительность промежутка : 40 мс. (1,00 видеокадр)
Время предзагрузки промежутка : 500 мс.
ServiceKind/String : Complete Main


Скриншоты:
скриншот   скриншот   скриншот   скриншот   скриншот   скриншот   скриншот   
скриншот  
pb.wtf



Скачать За час до рассвета через торрент https://pic1.kartinco.top/new/img/2021-02/16/tncisc3yotlfkg2ka2jhycmnq.jpg Скачать фильм За час до рассвета через торрент бесплантно в хорошем качестве Описание: 1946 год. Лейтенант Денис Журавлёв возвращается к мирной жизни и устраивается на службу в милицию. Его начальник – майор Шумейко ... 10 10 9
Торрент: Зарегистрирован [2021-02-22 23:47] · скачан: 56 раз
Статус: √ проверено
Размер: 2.34 GB
Как cкачать? Как скачать За час до рассвета через торрент | UTorrent

% Раздел Тема Автор DL S | L
Наши сериалы [ 2.94 GB ] За час до рассвета / Сезон: 1 / Серии: 1-4 из 16 [2021 история WEB-DL 720p ] bober100 Скачать
31 | 8


Последний раз редактировалось: GEKADOL (2021-02-22 23:54), всего редактировалось 2 раз(а)

28-11-2019 20:33  

Отключить всю рекламу на сайте

16-02-2021 02:55 За час до рассвета Скачать торрент  

по тентелю сказали что серь по стилистике будет похож на британский "острые козырьки". кто смотрел, как пилот?pb.wtf



23-02-2021 06:59 За час до рассвета Скачать торрент  

tamburetko писал(а):

по тентелю сказали что серь по стилистике будет похож на британский "острые козырьки". кто смотрел, как пилот?

какие Острые козырьки? Не забывайтесь. Сериал более - менее смотрибелен, но не без косяковpb.wtf



23-02-2021 08:24 За час до рассвета Скачать торрент  

полнейшая хрень ,глупая комедия,4 серии ждал адеквата,не дождался,удаляюpb.wtf



24-02-2021 18:32 За час до рассвета Скачать торрент  

plumber писал(а):

полнейшая хрень ,глупая комедия,4 серии ждал адеквата,не дождался,удаляю

Жанр: Драма, триллер, детектив, криминал, история

Ничего не перепутали? Я не язвлю, просто подумываю сериал начать смотреть, неужели настолько всё плохо?pb.wtf



    Дорогой пользователь! Огромная просьба, поблагодарите релизера, оцените раздачу и оставьте свои комментарий, если Вы скачали За час до рассвета через торрент бесплатно! Внесите свою лепту в развитие PiratBit!
    Комментировать посты могут только пользователи прошедшие не сложную регистрацию
    Показать сообщения:    

    За час до рассвета через торрент
    Скачать бесплатно За час до рассвета
    За час до рассвета скачать торрент
    За час до рассвета смотреть онлайн
    Cкачать фильм За час до рассвета бесплатно
    За час до рассвета скачать торрент в хорошем качестве
    За час до рассвета смотреть онлайн бесплатно в хорошем качестве


    Вы не можете начинать темы
    Вы не можете отвечать на сообщения
    Вы не можете редактировать свои сообщения
    Вы не можете удалять свои сообщения
    Вы не можете голосовать в опросах
    Вы не можете прикреплять файлы к сообщениям
    Вы можете скачивать файлы