2 сезон

iTunes

WEBRip

1

2 сезон

iTunes

1 сезон

1 сезон

RePack

30

Новинка

ВАЖНО

ИГРА 18+

pack

RePack

MK11
pack

Легкие деньги

RePack

jed

RePack

fifa19

RePack

RDR2

RePack

NEED FOR SPEED™ PAYBACK

4 сезон

9 сезон

Бесстыжие 9 сезон

Все сериалы

все сериалы на PB.wtf

RePack

FAR CRY 5

Anonymous, доброй ночи, мы не успеваем собрать деньги на оплату серверов за февраль, помогите нам пожалуйста в это трудное время. В качестве благодарности мы отключим Вам всю рекламу на сайте (укажите свой ник в строку Ваше имя)!

×
  
Magnet ссылка

Нагиев на каникулах / Сезон: 1 / Серии: 1-3 из 10 (Сарик Андреасян) [2021, Комедия, WEB-DL 720p] pb.wtf

Нагиев на каникулах через торрент pb.wtf

Раздают: 2 [ 147 KB/s ] Качают: 2 [ 0 KB/s ]
Размер: 1.37 GB | Добавлен: 2 д. 3 ч. назад | Торрент скачан:8 раз
Скачать  

16-02-2021 04:11 Нагиев на каникулах Скачать торрент  

Нагиев на каникулах
Год выпуска: 2021
Страна: Россия
Студия: Okko
Жанр: Комедия
Продолжительность: ~ 00:25:00

Режиссер: Сарик Андреасян



В ролях:
Дмитрий Нагиев, Роман Каграманов, Станислав Круглицкий, Елизавета Моряк, Джамиля Дадаева

Описание:
Продолжение двух сезонов сериала «Нагиев на карантине». Карантин прошёл и случилось то, чего так долго все ждали — снова начали летать самолеты! Люди, которые устали от самоизоляции рванули отдохнуть. И Дмитрий Нагиев не стал исключением. Ему поступило прекрасное предложение совместить приятное с полезным: поработать и параллельно отдохнуть в эмиратах. Отказаться очень сложно — сумма хорошая, погода прекрасная, а всего-то нужно провести свадьбу шейха. Но не тут-то было! Поездка превращается в испытание, которое Дмитрий должен будет пройти, чтобы вернуться домой уже совсем другим Нагиевым.

Качество: WEB-DL 720p
Формат: MKV

Видео: 3086 Кбит/сек, 1280*544 (2,35:1), в 25,000 кадров/сек, AVC
Аудио: 192 Кбит/сек, 48,0 КГц, 16 бит, 2 канала, AC-3

Общее
Уникальный идентификатор : 183128427327729952705942698140544912661 (0x89C5408F41584674AEE8ED2F43FDCD15)
Полное имя : G:\Nagiev.na.kanikulah.S01.2021.WEB-DL.(720p).ExKinoRay\Nagiev.na.kanikulah.S01.E01.2021.WEB-DL.(720p).ExKinoRay.mkv
Формат : Matroska
Версия формата : Version 2
Размер файла : 403 Мбайт
Продолжительность : 16 м. 51 с.
Общий поток : 3344 Кбит/сек
Дата кодирования : UTC 2021-02-15 23:02:53
Программа кодирования : mkvmerge v5.8.0 ('No Sleep / Pillow') built on Sep 2 2012 15:37:04
Библиотека кодирования : libebml v1.2.3 + libmatroska v1.3.0

Видео
Идентификатор : 1
Формат : AVC
Формат/Информация : Advanced Video Codec
Профиль формата : High@L3.1
Настройки формата : CABAC / 1 Ref Frames
Параметр CABAC формата : Да
Параметр RefFrames формата : 1 кадр
Идентификатор кодека : V_MPEG4/ISO/AVC
Продолжительность : 16 м. 51 с.
Битрейт : 3086 Кбит/сек
Ширина : 1280 пикселей
Высота : 544 пикселя
Соотношение сторон : 2,35:1
Режим частоты кадров : Постоянный
Частота кадров : 25,000 кадров/сек
Цветовое пространство : YUV
Субдискретизация насыщенности : 4:2:0
Битовая глубина : 8 бит
Тип развёртки : Прогрессивная
Бит/(Пиксели*Кадры) : 0.177
Размер потока : 372 Мбайт (92%)
Язык : Russian
Default : Да
Forced : Нет

Аудио
Идентификатор : 2
Формат : AC-3
Формат/Информация : Audio Coding 3
Коммерческое название : Dolby Digital
Идентификатор кодека : A_AC3
Продолжительность : 16 м. 51 с.
Вид битрейта : Постоянный
Битрейт : 192 Кбит/сек
Каналы : 2 канала
ChannelLayout : L R
Частота : 48,0 КГц
Частота кадров : 31,250 кадров/сек (1536 SPF)
Битовая глубина : 16 бит
Метод сжатия : С потерями
Размер потока : 23,2 Мбайт (6%)
Язык : Russian
ServiceKind/String : Complete Main
Default : Да
Forced : Нет


Скриншоты:
скриншот   скриншот   скриншот   скриншот   скриншот   скриншот   скриншот   
скриншот  
pb.wtf



Скачать Нагиев на каникулах через торрент https://pic1.kartinco.top/new/img/2021-02/16/i8hyomvhn4wcvqyqckmx30sqc.jpg Скачать фильм Нагиев на каникулах через торрент бесплантно в хорошем качестве Описание: Продолжение двух сезонов сериала «Нагиев на карантине». Карантин прошёл и случилось то, чего так долго все ждали — снова начали ... 10 10 1
Торрент: Зарегистрирован [2021-03-01 22:49] · скачан: 8 раз
Статус: не проверено
Размер: 1.37 GB
Как cкачать? Как скачать Нагиев на каникулах через торрент | UTorrent

% Раздел Тема Автор DL S | L
Наши сериалы [ 2.09 GB ] Нагиев на каникулах / Сезон: 1 / Серии: 1-3 из 10 [2021 WEB-DL 1080p] bober100 Скачать
2 | 4
* Наши сериалы [ 754 MB ] Нагиев на каникулах / Сезон: 1 / Серии: 1-3 из 10 [2021 WEB-DLRip] GEKADOL Скачать
5 | 0

28-11-2019 20:33  

Отключить всю рекламу на сайте

    Дорогой пользователь! Огромная просьба, поблагодарите релизера, оцените раздачу и оставьте свои комментарий, если Вы скачали Нагиев на каникулах через торрент бесплатно! Внесите свою лепту в развитие PiratBit!
    Комментировать посты могут только пользователи прошедшие не сложную регистрацию
    Показать сообщения:    

    Нагиев на каникулах через торрент
    Скачать бесплатно Нагиев на каникулах
    Нагиев на каникулах скачать торрент
    Нагиев на каникулах смотреть онлайн
    Cкачать фильм Нагиев на каникулах бесплатно
    Нагиев на каникулах скачать торрент в хорошем качестве
    Нагиев на каникулах смотреть онлайн бесплатно в хорошем качестве


    Вы не можете начинать темы
    Вы не можете отвечать на сообщения
    Вы не можете редактировать свои сообщения
    Вы не можете удалять свои сообщения
    Вы не можете голосовать в опросах
    Вы не можете прикреплять файлы к сообщениям
    Вы можете скачивать файлы