Достать ножи: Стеклянная луковица

MVO

Добыча

Дубляж

Уэнсдэй

1 сезон

Тор

Дубляж

13 клиническая

1 сезон

Жестокая ночь

MVO

Одни из нас

1 сезон

Deluxe

pack

Рекомендуем

30

Пиратка

ВАЖНО

ВАЖНО

Ghostwire

Пиратка

jed

RePack

nioh2

RePack

RDR2

RePack

NEED FOR SPEED™ PAYBACK

RePack

скачать торрент

Кинопоиск HD

Острые козырьки 6 сезон

6 сезон

FAR CRY 6

RePack

скачать торрент

Лицензия

скачать торрент

MVO

1

1 сезон

скачать торрент

1 сезон

скачать торрент

Лицензия

  

Поворот не туда: Наследие / Wrong Turn: The Foundation (Майк П. Нельсон) [2021, Ужасы, триллер, HDRip-AVC] [Дубляж, MVO, AVO] [iTunes, HDRezka, Андрей Дольский] от MediaBit

Поворот не туда: Наследие через торрент pb.wtf

Размер: 2.81 GB | Добавлен: 1 год 10 мес. назад | Торрент скачан:63 раза
Смотреть онлайн | Скачать | Поддержите нас   

16-02-2021 09:00 Поворот не туда: Наследие Скачать торрент  


Поворот не туда: Наследие / Wrong Turn: The Foundation
Название: Поворот не туда: Наследие
Оригинальное название: Wrong Turn: The Foundation
Год выхода: 2021
Жанр: Ужасы, триллер
Режиссер: Майк П. Нельсон
В ролях: Мэттью Модайн, Эмма Дюмон, Шарлотта Вега, Дэйзи Хэд, Билл Сейдж, Валери Джейн Паркер, Адайн Брэдли, Дэниэл Р. Хилл, Тим ДеЗарн, Дэмиэн Маффей, Зои Амбер, Дилан Макти, Кори Скотт Аллен, Адриан Фавела, Крис Хан, Дэвид Хатчинсон, Чейни Морроу, Вардаан Арора

Описание: Компания друзей приезжает в Харперс-Ферри, чтобы отправиться в поход по Аппалачской тропе. В этих краях они сталкиваются с сообществом людей, которые жили в горах еще до Гражданской войны. И которые очень не любят незнакомцев.



Страна: Германия, США, Великобритания
Студия: Constantin Film
Продолжительность: 01:50:12
Перевод #1: Дублированный - iTunes
Перевод #2: Профессиональный многоголосый - HDRezka
Перевод #3: Aвторский - Андрей Дольский



Информация о файле:
Кодек: AVC
Формат: MKV
Качество: HDRip-AVC
Видео: MPEG-4 AVC, 1024x428, 23.976 fps, 1925 kbps
Аудио RU #1: AC3, 6 ch, 48 kHz, 384 kbps | iTunes |
Аудио RU #2: AC3, 6 ch, 48 kHz, 448 kbps | HDRezka |
Аудио RU #3: AC3, 6 ch, 48 kHz, 384 kbps Дольский |
Аудио EN #4: AC3, 6 ch, 48 kHz, 448 kbps | Оригинал |
Субтитры: Русские (Forced), английские
Навигация по главам: Да

семпл
x264 info: frame I:1459 Avg QP:15.78 size: 70851
x264 info: frame P:37510 Avg QP:19.71 size: 20912
x264 info: frame B:119575 Avg QP:22.33 size: 5882
***************************************************
General
Unique ID : 246587519932448530799373695104832033922 (0xB98307630AB6B27973220CE2422CD482)
Complete name : D:uTorrentРипы_от_wolf1245_MediaBitWrong Turn- The Foundation.2021.Дубляж.MVO.AVO.HDRip-AVC_wolf1245_MediaBit.mkv
Format : Matroska
Format version : Version 4
File size : 2.81 GiB
Duration : 1 h 50 min
Overall bit rate : 3 652 kb/s
Movie name : Wrong Turn: The Foundation.2021.Дубляж.MVO.AVO.HDRip-AVC_wolf1245_MediaBit
Encoded date : UTC 2021-03-11 09:38:03
Writing application : mkvmerge v55.0.0 ('Waiting For Space') 64-bit
Writing library : libebml v1.4.2 + libmatroska v1.6.4
Attachments : MSYH.TTF / MSYHBD.TTF / tahoma.ttf / 寰蒋闆呴粦绻佺畝瀹屽叏鐗?ttf
Video
ID : 1
Format : AVC
Format/Info : Advanced Video Codec
Format profile : [email protected]
Format settings : CABAC / 12 Ref Frames
Format settings, CABAC : Yes
Format settings, Reference frames : 12 frames
Codec ID : V_MPEG4/ISO/AVC
Duration : 1 h 50 min
Bit rate : 1 925 kb/s
Width : 1 024 pixels
Height : 428 pixels
Display aspect ratio : 2.40:1
Frame rate mode : Constant
Frame rate : 23.976 (24000/1001) FPS
Color space : YUV
Chroma subsampling : 4:2:0
Bit depth : 8 bits
Scan type : Progressive
Bits/(Pixel*Frame) : 0.183
Stream size : 1.48 GiB (53%)
Title : _wolf1245_MediaBit
Writing library : x264 core 157 r2958 57baac4
Encoding settings : cabac=1 / ref=12 / deblock=1:-3:-2 / analyse=0x3:0x133 / me=umh / subme=11 / psy=1 / psy_rd=1.00:0.05 / mixed_ref=1 / me_range=32 / chroma_me=1 / trellis=2 / 8x8dct=1 / cqm=0 / deadzone=21,11 / fast_pskip=1 / chroma_qp_offset=-3 / threads=10 / lookahead_threads=2 / sliced_threads=0 / nr=0 / decimate=1 / interlaced=0 / bluray_compat=0 / constrained_intra=0 / bframes=10 / b_pyramid=2 / b_adapt=2 / b_bias=0 / direct=3 / weightb=1 / open_gop=0 / weightp=2 / keyint=240 / keyint_min=24 / scenecut=40 / intra_refresh=0 / rc_lookahead=60 / rc=2pass / mbtree=1 / bitrate=1925 / ratetol=1.0 / qcomp=0.60 / qpmin=0 / qpmax=69 / qpstep=4 / cplxblur=20.0 / qblur=0.5 / vbv_maxrate=50000 / vbv_bufsize=62500 / nal_hrd=none / filler=0 / ip_ratio=1.40 / aq=1:0.80
Language : English
Default : Yes
Forced : No
Audio #1
ID : 2
Format : AC-3
Format/Info : Audio Coding 3
Commercial name : Dolby Digital
Codec ID : A_AC3
Duration : 1 h 50 min
Bit rate mode : Constant
Bit rate : 384 kb/s
Channel(s) : 6 channels
Channel layout : L R C LFE Ls Rs
Sampling rate : 48.0 kHz
Frame rate : 31.250 FPS (1536 SPF)
Bit depth : 32 bits
Compression mode : Lossy
Stream size : 303 MiB (11%)
Title : Дубляж | iTunes
Language : Russian
Service kind : Complete Main
Default : Yes
Forced : No
Audio #2
ID : 3
Format : AC-3
Format/Info : Audio Coding 3
Commercial name : Dolby Digital
Codec ID : A_AC3
Duration : 1 h 50 min
Bit rate mode : Constant
Bit rate : 448 kb/s
Channel(s) : 6 channels
Channel layout : L R C LFE Ls Rs
Sampling rate : 48.0 kHz
Frame rate : 31.250 FPS (1536 SPF)
Bit depth : 32 bits
Compression mode : Lossy
Stream size : 353 MiB (12%)
Title : MVO [HDRezka [Censored]]
Language : Russian
Service kind : Complete Main
Default : No
Forced : No
Audio #3
ID : 4
Format : AC-3
Format/Info : Audio Coding 3
Commercial name : Dolby Digital
Codec ID : A_AC3
Duration : 1 h 50 min
Bit rate mode : Constant
Bit rate : 384 kb/s
Channel(s) : 6 channels
Channel layout : L R C LFE Ls Rs
Sampling rate : 48.0 kHz
Frame rate : 31.250 FPS (1536 SPF)
Bit depth : 32 bits
Compression mode : Lossy
Stream size : 303 MiB (11%)
Title : AVO [А. Дольский]
Language : Russian
Service kind : Complete Main
Default : No
Forced : No
Audio #4
ID : 5
Format : AC-3
Format/Info : Audio Coding 3
Commercial name : Dolby Digital
Codec ID : A_AC3
Duration : 1 h 50 min
Bit rate mode : Constant
Bit rate : 448 kb/s
Channel(s) : 6 channels
Channel layout : L R C LFE Ls Rs
Sampling rate : 48.0 kHz
Frame rate : 31.250 FPS (1536 SPF)
Bit depth : 32 bits
Compression mode : Lossy
Stream size : 353 MiB (12%)
Title : Original
Language : English
Service kind : Complete Main
Default : No
Forced : No
Text #1
ID : 6
Format : UTF-8
Codec ID : S_TEXT/UTF8
Codec ID/Info : UTF-8 Plain Text
Duration : 1 h 47 min
Bit rate : 3 b/s
Count of elements : 52
Stream size : 2.45 KiB (0%)
Title : Forced [HDRezka]
Language : Russian
Default : No
Forced : No
Text #2
ID : 7
Format : UTF-8
Codec ID : S_TEXT/UTF8
Codec ID/Info : UTF-8 Plain Text
Duration : 1 h 42 min
Bit rate : 45 b/s
Count of elements : 1233
Stream size : 34.1 KiB (0%)
Title : Full
Language : English
Default : No
Forced : No
Text #3
ID : 8
Format : UTF-8
Codec ID : S_TEXT/UTF8
Codec ID/Info : UTF-8 Plain Text
Duration : 1 h 47 min
Bit rate : 52 b/s
Count of elements : 1512
Stream size : 41.2 KiB (0%)
Title : SDH
Language : English
Default : No
Forced : No
Menu
00:00:00.000 : :Chapter 01
00:05:22.364 : :Chapter 02
00:14:39.170 : :Chapter 03
00:20:43.826 : :Chapter 04
00:25:05.129 : :Chapter 05
00:32:36.538 : :Chapter 06
00:39:30.952 : :Chapter 07
00:44:12.775 : :Chapter 08
00:48:35.329 : :Chapter 09
00:58:29.381 : :Chapter 10
01:06:07.172 : :Chapter 11
01:14:34.970 : :Chapter 12
01:22:48.130 : :Chapter 13
01:29:33.535 : :Chapter 14
01:38:13.346 : :Chapter 15
01:43:54.061 : :Chapter 16
Релиз от:amp; MediaBit
Автор релиза:



Скачать Поворот не туда: Наследие через торрент https://i114.fastpic.ru/big/2021/0216/52/180e9f0caf88c49c07e31a38c246b752.png Скачать, смотреть онлайн Поворот не туда: Наследие бесплантно в хорошем качестве Описание: Компания друзей приезжает в Харперс-Ферри, чтобы отправиться в поход по Аппалачской тропе. В этих краях они сталкиваются с ... 8.1 10 9
Торрент: Зарегистрирован [2021-03-11 09:49] · скачан: 63 раз
Статус: √ проверено
Размер: 2.81 GB
Как cкачать? Как скачать Поворот не туда: Наследие через торрент | UTorrent




Последний раз редактировалось: Lithuania (2021-03-11 09:49), всего редактировалось 1 раз

28-11-2019 20:33  


Отключить вcю реклaмy на сайте, в т.ч. и в плеере онлайн просмотра!

16-02-2021 11:19 Поворот не туда: Наследие Скачать торрент  

эээ, не надо нам ТАКОГО перезапуска франшизы



12-03-2021 01:00 Поворот не туда: Наследие Скачать торрент  

Топик был перенесен из форума Фильмы с авторской озвучкой в форум Фильмы 2021 [DVDrip, WEB-DLRip, HDrip] (Дубляж, MVO)


Enigma2010



    Дорогой пользователь! Огромная просьба, поблагодарите релизера, оцените раздачу и оставьте свои комментарий, если Вы скачали Поворот не туда: Наследие через торрент бесплатно!!
    Комментировать посты могут только пользователи прошедшие не сложную регистрацию
    Показать сообщения:    


    Поворот не туда: Наследие через торрент
    Скачать бесплатно Поворот не туда: Наследие
    Поворот не туда: Наследие скачать торрент
    Поворот не туда: Наследие смотреть онлайн
    Cкачать фильм Поворот не туда: Наследие бесплатно
    Поворот не туда: Наследие скачать торрент в хорошем качестве
    Поворот не туда: Наследие смотреть онлайн бесплатно в хорошем качестве
    Вы не можете начинать темы
    Вы не можете отвечать на сообщения
    Вы не можете редактировать свои сообщения
    Вы не можете удалять свои сообщения
    Вы не можете голосовать в опросах
    Вы не можете прикреплять файлы к сообщениям
    Вы можете скачивать файлы
    Поворот не туда: Наследие / Wrong Turn: The Foundation [2021, Ужасы, триллер, HDRip-AVC] [Дубляж, MVO, AVO] [iTunes, HDRezka, Андрей Дольский] от MediaBit смотреть онлайн, скачать торрент picoco.icu