2 сезон

iTunes

WEBRip

1

2 сезон

iTunes

1 сезон

1 сезон

RePack

30

Новинка

ВАЖНО

ИГРА 18+

pack

RePack

MK11
pack

Легкие деньги

RePack

jed

RePack

fifa19

RePack

RDR2

RePack

NEED FOR SPEED™ PAYBACK

4 сезон

9 сезон

Бесстыжие 9 сезон

Все сериалы

все сериалы на PB.wtf

RePack

FAR CRY 5

Anonymous, доброе утро, мы не успеваем собрать деньги на оплату серверов за февраль, помогите нам пожалуйста в это трудное время. В качестве благодарности мы отключим Вам всю рекламу на сайте (укажите свой ник в строку Ваше имя)!

×
  
Magnet ссылка

День воина / Day of the Warrior (Энди Сидарис) [1996 г., Боевик, триллер, приключения, эротика, BDRip 720p, Профессиональный двухголосый] от ExKinoRay pb.wtf

День воина через торрент pb.wtf

Раздают: 3 [ 0 KB/s ]
Размер: 4.52 GB | Добавлен: 15 д. назад | Торрент скачан:48 раз
Скачать  

17-02-2021 06:02 День воина Скачать торрент  

День воина / Day of the Warrior
Год выпуска: 1996
Страна: США
Жанр: Боевик, триллер, приключения, эротика
Продолжительность: 01:36:41
Перевод: Профессиональный двухголосый
Субтитры: Английские

Режиссер: Энди Сидарис

Премьера в мире: 7 марта 1997

rating

В ролях: Кевин Лайт, Кристиан Летелье, Джули Стрэйн, Джули К. Смит, Шаэ Маркс, Маркус Багвелл, Рэй Холлитт, Родриго Обрегон, Джастин Мелви, Джералд Окамура

Описание: Бывший агент ЦРУ, по кличке Воин возглавляет преступный синдикат, занимающийся контрабандой алмазов, порнобизнесом и работорговлей. Внедриться в ряды армии Воина и остановить его по силам только обворожительным агенткам из спецподразделения правительства.

Доп. информация: Перевод: Профессиональный двухголосый (НТВ+)
Субтитры: Английские (SDH)

Качество: BDRip 720p
Формат: MKV
Видео кодек: MPEG4
Аудио кодек: AC3
Видео: 6300 Кбит/с, 1280x720, 23.976 кадра/сек
Аудио#1: Русский (AC3, 2 ch, 192 Кбит/с, 48 КГц)
Аудио#2: Английский (AC3, 2 ch, 192 Кбит/с, 48 КГц)
Релиз от:
x264 [info]: profile High, level 4.1
x264 [info]: frame I:985 Avg QP:17.84 size:135236
x264 [info]: frame P:32083 Avg QP:20.47 size: 52812
x264 [info]: frame B:106013 Avg QP:21.65 size: 25850
-----
Общее
Уникальный идентификатор : 193287512165416089258812619141920647704 (0x9169D21D091FAB5CA2F004D41C44EA18)
Полное имя : D:\MyRips\Day.Warrior.1996.BDRip720p.ExKinoRay.mkv
Формат : Matroska
Версия формата : Version 2
Размер файла : 4,52 Гбайт
Продолжительность : 1 ч. 36 м.
Общий поток : 6686 Кбит/сек
Дата кодирования : UTC 2021-02-17 04:20:15
Программа кодирования : mkvmerge v7.8.0 ('River Man') 32bit built on Apr 3 2015 12:11:22
Библиотека кодирования : libebml v1.3.1 + libmatroska v1.4.2

Видео
Идентификатор : 1
Формат : AVC
Формат/Информация : Advanced Video Codec
Профиль формата : High@L4.1
Настройки формата : CABAC / 9 Ref Frames
Параметр CABAC формата : Да
Параметр RefFrames формата : 9 кадров
Идентификатор кодека : V_MPEG4/ISO/AVC
Продолжительность : 1 ч. 36 м.
Битрейт : 6300 Кбит/сек
Ширина : 1280 пикселей
Высота : 720 пикселей
Соотношение сторон : 16:9
Режим частоты кадров : Постоянный
Частота кадров : 23,976 (24000/1001) кадра/сек
Цветовое пространство : YUV
Субдискретизация насыщенности : 4:2:0
Битовая глубина : 8 бит
Тип развёртки : Прогрессивная
Бит/(Пиксели*Кадры) : 0.285
Размер потока : 4,17 Гбайт (92%)
Библиотека кодирования : x264 core 152 r2851 ba24899
Настройки программы : cabac=1 / ref=9 / deblock=1:-3:-2 / analyse=0x3:0x113 / me=umh / subme=10 / psy=1 / psy_rd=1.00:0.10 / mixed_ref=1 / me_range=32 / chroma_me=1 / trellis=2 / 8x8dct=1 / cqm=0 / deadzone=21,11 / fast_pskip=0 / chroma_qp_offset=-3 / threads=6 / lookahead_threads=1 / sliced_threads=0 / nr=0 / decimate=0 / interlaced=0 / bluray_compat=0 / constrained_intra=0 / bframes=14 / b_pyramid=2 / b_adapt=2 / b_bias=0 / direct=3 / weightb=1 / open_gop=0 / weightp=2 / keyint=240 / keyint_min=23 / scenecut=40 / intra_refresh=0 / rc=2pass / mbtree=0 / bitrate=6300 / ratetol=1.0 / qcomp=0.60 / qpmin=0 / qpmax=69 / qpstep=4 / cplxblur=20.0 / qblur=0.5 / ip_ratio=1.40 / pb_ratio=1.30 / aq=3:1.00
Язык : English
Default : Да
Forced : Нет
Цветовой диапазон : Limited
Основные цвета : BT.709
Характеристики трансфера : BT.709
Коэффициенты матрицы : BT.709

Аудио #1
Идентификатор : 2
Формат : AC-3
Формат/Информация : Audio Coding 3
Коммерческое название : Dolby Digital
Идентификатор кодека : A_AC3
Продолжительность : 1 ч. 36 м.
Вид битрейта : Постоянный
Битрейт : 192 Кбит/сек
Каналы : 2 канала
Channel layout : L R
Частота : 48,0 КГц
Частота кадров : 31,250 кадров/сек (1536 SPF)
Битовая глубина : 16 бит
Метод сжатия : С потерями
Размер потока : 133 Мбайт (3%)
Заголовок : НТВ+
Язык : Russian
ServiceKind/String : Complete Main
Default : Да
Forced : Нет

Аудио #2
Идентификатор : 3
Формат : AC-3
Формат/Информация : Audio Coding 3
Коммерческое название : Dolby Digital
Идентификатор кодека : A_AC3
Продолжительность : 1 ч. 36 м.
Вид битрейта : Постоянный
Битрейт : 192 Кбит/сек
Каналы : 2 канала
Channel layout : L R
Частота : 48,0 КГц
Частота кадров : 31,250 кадров/сек (1536 SPF)
Битовая глубина : 16 бит
Метод сжатия : С потерями
Размер потока : 133 Мбайт (3%)
Язык : English
ServiceKind/String : Complete Main
Default : Нет
Forced : Нет

Текст
Идентификатор : 4
Формат : UTF-8
Идентификатор кодека : S_TEXT/UTF8
Идентификатор кодека/Информация : UTF-8 Plain Text
Язык : English
Default : Нет
Forced : Нет

Меню
00:00:00.000 : en:Глава 01
00:10:10.318 : en:Глава 02
00:17:32.301 : en:Глава 03
00:23:15.268 : en:Глава 04
00:35:41.556 : en:Глава 05
00:43:05.958 : en:Глава 06
00:51:27.000 : en:Глава 07
00:59:08.878 : en:Глава 08
01:15:21.517 : en:Глава 09
01:21:40.979 : en:Глава 10
01:29:52.136 : en:Глава 11
01:34:13.314 : en:Глава 12
01:36:40.336 : en:Глава 13

pb.wtf



Скачать День воина через торрент http://b.radikal.ru/b39/2102/3b/cccb75eb0093.jpg Скачать фильм День воина через торрент бесплантно в хорошем качестве Описание: Бывший агент ЦРУ, по кличке Воин возглавляет преступный синдикат, занимающийся контрабандой алмазов, порнобизнесом и ... 10 10 1
Торрент: Зарегистрирован [2021-02-17 06:02] · скачан: 48 раз
Статус: √ проверено
Размер: 4.52 GB
Как cкачать? Как скачать День воина через торрент | UTorrent



Последний раз редактировалось: dumbia (2021-02-17 14:55), всего редактировалось 1 раз

28-11-2019 20:33  

Отключить всю рекламу на сайте

17-02-2021 07:26 День воина Скачать торрент  

Давай тогда все 12 частей в таком качестве будет супер в коллекциюpb.wtf



    Дорогой пользователь! Огромная просьба, поблагодарите релизера, оцените раздачу и оставьте свои комментарий, если Вы скачали День воина через торрент бесплатно! Внесите свою лепту в развитие PiratBit!
    Комментировать посты могут только пользователи прошедшие не сложную регистрацию
    Показать сообщения:    

    День воина через торрент
    Скачать бесплатно День воина
    День воина скачать торрент
    День воина смотреть онлайн
    Cкачать фильм День воина бесплатно
    День воина скачать торрент в хорошем качестве
    День воина смотреть онлайн бесплатно в хорошем качестве


    Вы не можете начинать темы
    Вы не можете отвечать на сообщения
    Вы не можете редактировать свои сообщения
    Вы не можете удалять свои сообщения
    Вы не можете голосовать в опросах
    Вы не можете прикреплять файлы к сообщениям
    Вы можете скачивать файлы