Присоединяйтесь к нам в Telegram!, здесь всегда актуальный адрес сайта, оперативная поддержка и многое другое!!

>

5.9

iTunes

7.4

iTunes

9.4

1 сезон

1

7.4

2 сезон

7.2

iTunes

7.3

1 сезон

13

6.1

iTunes

8.3

Пиратка

30

ULTIMATE

pack

9.9

Лицензия

ВАЖНО

ИГРА 18+

pack

7.3

RePack

MK11

7.7

RePack

jed

7.8

RePack

fifa19

8.5

RePack

RDR2

RePack

NEED FOR SPEED™ PAYBACK

5 сезон

9 сезон

Бесстыжие 9 сезон

Все сериалы

все сериалы на PB.wtf

RePack

FAR CRY 5

Anonymous, доброе утро, мы катастрофически не успеваем собрать деньги на оплату серверов, помогите нам пожалуйста 5,10,15р., для нас важна любая помощь . В качестве благодарности мы отключим Вам всю рекламу на сайте (укажите свой ник в строку Ваше имя)!

×
  
Magnet ссылка

Денежная игла / Body Brokers (Джон Своб) [2021, криминал, триллер, WEB-DLRip-AVC] [DUB] [iTunes] от MediaBit pb.wtf

Денежная игла через торрент pb.wtf

Раздают: 1 [ 0 KB/s ]
Размер: 2.05 GB | Добавлен: 9 мес. назад | Торрент скачан:141 раз
Смотреть онлайн Денежная игла | Скачать    Ребята, помогите собрать деньги на оплату серверов!!!

18-02-2021 11:37 Денежная игла Скачать торрент  


Денежная игла / Body Brokers
Информация о фильме:
Название: Денежная игла
Оригинальное название: Body Brokers
Год выхода: 2021
Жанр: криминал, триллер
Режиссер: Джон Своб

В ролях: Фрэнк Грилло, Майкл Кэй Уильямс, Мелисса Лео, Джессика Рот, Элис Инглерт, Томас Деккер, Питер Грин, Джек Килмер, Оуэн Кэмпбелл, Билли Блэр, Пэм Догерти, Рени Уиллетт, Сэм Куартин, Бен Холл, Кара Кокс, Кэролайн МакКензи, Джеймс Уайтклоуд, Даг ван Лив, Джеймс Дэвид Уилсон, Стив Бранер, Бретт Своб

Описание: То, что наркоторговля – прибыльный «бизнес», известно всем. Но эта история о том, как сколачивались сотни миллионов на «лечении» севших на иглу. Молодому парню Юте повезло больше других. Ему выпал шанс увидеть подпольный бизнес изнутри, пройти весь путь: от пациента на реабилитации до вербовщика новых клиентов. Но справится ли он с новой ролью и с новой зависимостью… от денег?



Страна: США
Студия: Roxwell Films, Blood Moon Creative, BondIt Media Capital
Продолжительность: 01:47:44
Перевод: Профессиональный (полное дублирование) - iTunes



Информация о файле:
Кодек: AVC
Формат: MKV
Качество: WEB-DLRip-AVC
Видео: MPEG-4 AVC, 1024x428, 24.000 fps, 1954 kbps
Аудио RU: AC3, 6 ch, 48 kHz, 384 kbps
Аудио EN: AC3, 6 ch, 48 kHz, 384 kbps
Субтитры: Russian (Full)
Навигация по главам: Да

x264 info: frame I:1161 Avg QP:14.00 size: 66261
x264 info: frame P:37538 Avg QP:16.97 size: 20337
x264 info: frame B:116451 Avg QP:20.28 size: 6346
x264 info: consecutive B-frames: 1.7% 3.3% 5.0% 56.8% 10.2% 19.0% 1.6% 1.1% 0.2% 0.6% 0.5%
x264 info: mb I I16..4: 6.7% 69.4% 23.9%
******************************************
General
Unique ID : 199213742002488330497275548337242645638 (0x95DF2BCD93A71D835C7A44C5E3302486)
Complete name : D:uTorrentРипы_от_wolf1245_MediaBitBody Brokers.2021.DUB.iTunes.WEB-DLRip-AVC_wolf1245_MediaBit.mkv
Format : Matroska
Format version : Version 4
File size : 2.05 GiB
Duration : 1 h 47 min
Overall bit rate : 2 725 kb/s
Movie name : Body Brokers.2021.DUB.iTunes.WEB-DLRip-AVC_wolf1245_MediaBit
Encoded date : UTC 2021-02-18 11:25:17
Writing application : mkvmerge v53.0.0 ('Fool's Gold') 64-bit
Writing library : libebml v1.4.1 + libmatroska v1.6.2
Video
ID : 2
Format : AVC
Format/Info : Advanced Video Codec
Format profile : High@L4.1
Format settings : CABAC / 12 Ref Frames
Format settings, CABAC : Yes
Format settings, Reference frames : 12 frames
Codec ID : V_MPEG4/ISO/AVC
Duration : 1 h 47 min
Bit rate : 1 954 kb/s
Width : 1 024 pixels
Height : 428 pixels
Display aspect ratio : 2.40:1
Frame rate mode : Constant
Frame rate : 24.000 FPS
Color space : YUV
Chroma subsampling : 4:2:0
Bit depth : 8 bits
Scan type : Progressive
Bits/(Pixel*Frame) : 0.186
Stream size : 1.47 GiB (72%)
Title : _wolf1245_MediaBit
Writing library : x264 core 157 r2958 57baac4
Encoding settings : cabac=1 / ref=12 / deblock=1:-3:-3 / analyse=0x3:0x133 / me=umh / subme=10 / psy=1 / psy_rd=1.06:0.06 / mixed_ref=1 / me_range=48 / chroma_me=1 / trellis=2 / 8x8dct=1 / cqm=0 / deadzone=21,11 / fast_pskip=1 / chroma_qp_offset=-3 / threads=10 / lookahead_threads=2 / sliced_threads=0 / nr=0 / decimate=1 / interlaced=0 / bluray_compat=0 / constrained_intra=0 / bframes=10 / b_pyramid=2 / b_adapt=2 / b_bias=0 / direct=3 / weightb=1 / open_gop=0 / weightp=2 / keyint=240 / keyint_min=24 / scenecut=40 / intra_refresh=0 / rc_lookahead=60 / rc=2pass / mbtree=1 / bitrate=1954 / ratetol=1.0 / qcomp=0.60 / qpmin=0 / qpmax=69 / qpstep=4 / cplxblur=20.0 / qblur=0.5 / vbv_maxrate=50000 / vbv_bufsize=62500 / nal_hrd=none / filler=0 / ip_ratio=1.40 / aq=1:0.70
Language : English
Default : Yes
Forced : No
Color range : Limited
Color primaries : BT.709
Transfer characteristics : BT.709
Matrix coefficients : BT.709
Audio #1
ID : 1
Format : AC-3
Format/Info : Audio Coding 3
Commercial name : Dolby Digital
Codec ID : A_AC3
Duration : 1 h 47 min
Bit rate mode : Constant
Bit rate : 384 kb/s
Channel(s) : 6 channels
Channel layout : L R C LFE Ls Rs
Sampling rate : 48.0 kHz
Frame rate : 31.250 FPS (1536 SPF)
Compression mode : Lossy
Stream size : 296 MiB (14%)
Title : Original
Language : English
Service kind : Complete Main
Default : No
Forced : No
Audio #2
ID : 3
Format : AC-3
Format/Info : Audio Coding 3
Commercial name : Dolby Digital
Codec ID : A_AC3
Duration : 1 h 47 min
Bit rate mode : Constant
Bit rate : 384 kb/s
Channel(s) : 6 channels
Channel layout : L R C LFE Ls Rs
Sampling rate : 48.0 kHz
Frame rate : 31.250 FPS (1536 SPF)
Compression mode : Lossy
Stream size : 296 MiB (14%)
Title : DUB | (iTunes)
Language : Russian
Service kind : Complete Main
Default : Yes
Forced : No
Text
ID : 4
Format : UTF-8
Codec ID : S_TEXT/UTF8
Codec ID/Info : UTF-8 Plain Text
Duration : 1 h 43 min
Bit rate : 89 b/s
Count of elements : 1670
Stream size : 68.1 KiB (0%)
Language : Russian
Default : No
Forced : No
Menu
00:00:00.000 : :Глава 1
00:03:59.333 : :Глава 2
00:09:31.541 : :Глава 3
00:17:57.707 : :Глава 4
00:22:15.248 : :Глава 5
00:31:35.039 : :Глава 6
00:42:28.039 : :Глава 7
00:53:25.872 : :Глава 8
01:01:26.747 : :Глава 9
01:11:01.122 : :Глава 10
01:22:55.080 : :Глава 11
01:31:12.455 : :Глава 12
Релиз от: &
Автор релиза:
pb.wtf



Скачать Денежная игла через торрент https://i114.fastpic.ru/big/2021/0218/27/6a6233fee14ae32b3040afe74c9a1927.png Скачать, смотреть онлайн Денежная игла бесплантно в хорошем качестве Описание: То, что наркоторговля – прибыльный «бизнес», известно всем. Но эта история о том, как сколачивались сотни миллионов на ... 10 10 3
Торрент: Зарегистрирован [2021-02-18 11:37] · скачан: 141 раз
Статус: √ проверено
Размер: 2.05 GB
Как cкачать? Как скачать Денежная игла через торрент | UTorrent

28-11-2019 20:33  

Отключить всю рекламу на сайте

07-03-2021 01:51 Денежная игла Скачать торрент  

шлакpb.wtf



    Дорогой пользователь! Огромная просьба, поблагодарите релизера, оцените раздачу и оставьте свои комментарий, если Вы скачали Денежная игла через торрент бесплатно!
    Комментировать посты могут только пользователи прошедшие не сложную регистрацию
    Показать сообщения:    

    Денежная игла через торрент
    Скачать бесплатно Денежная игла
    Денежная игла скачать торрент
    Денежная игла смотреть онлайн
    Cкачать фильм Денежная игла бесплатно
    Денежная игла скачать торрент в хорошем качестве
    Денежная игла смотреть онлайн бесплатно в хорошем качестве


    Вы не можете начинать темы
    Вы не можете отвечать на сообщения
    Вы не можете редактировать свои сообщения
    Вы не можете удалять свои сообщения
    Вы не можете голосовать в опросах
    Вы не можете прикреплять файлы к сообщениям
    Вы можете скачивать файлы