2 сезон

iTunes

WEBRip

1

2 сезон

iTunes

1 сезон

1 сезон

RePack

30

Новинка

ВАЖНО

ИГРА 18+

pack

RePack

MK11
pack

Легкие деньги

RePack

jed

RePack

fifa19

RePack

RDR2

RePack

NEED FOR SPEED™ PAYBACK

4 сезон

9 сезон

Бесстыжие 9 сезон

Все сериалы

все сериалы на PB.wtf

RePack

FAR CRY 5

Anonymous, добрый вечер, мы не успеваем собрать деньги на оплату серверов за февраль, помогите нам пожалуйста в это трудное время. В качестве благодарности мы отключим Вам всю рекламу на сайте (укажите свой ник в строку Ваше имя)!

×
  
Magnet ссылка

Страна Чудес Вилли / Willy's Wonderland (Кевин Льюис) [2021 г., ужасы, комедия, Любительский (одноголосый) Ravazu] pb.wtf

Страна Чудес Вилли через торрент pb.wtf

Раздают: 1 [ 0 KB/s ] Качают: 1 [ 0 KB/s ]
Размер: 4.6 GB | Добавлен: 14 д. назад | Торрент скачан:4 раза
Скачать  

18-02-2021 15:13 Страна Чудес Вилли Скачать торрент  

Страна Чудес Вилли / Willy's Wonderland
Год выпуска: 2021
Страна: США
Жанр: ужасы, комедия
Продолжительность: 88 мин.
Перевод: Любительский (одноголосый) Ravazu

Режиссер: Кевин Льюис

Премьера в мире: 12 февраля 2021

rating

В ролях: Николас Кейдж, Эмили Тоста, Бет Грант, Рик Райц, Крис Уорнер, Кай Кадлец, Кэйли Кауэн, Джонатан Мерседес, Терэйл Хилл, Кристиан Дельгроссо

Описание: У молчаливого мужчины на спортивной машине неподалёку от небольшого городка пробивает колесо, и из-за отсутствия работающих банкоматов он соглашается отработать ремонт. Ему приходится провести ночную уборку в бывшем центре для празднования дней рождения «Страна чудес Вилли». Ночью аниматронные куклы начинают внезапно оживать, и намерения касательно нового уборщика у них самые кровожадные, но они ещё не знают, что это не его с ними заперли, а их — с ним.

Видео: 7 216 Кбит/сек, 1920 x 1080 (16:9), в 23.976 fps (24000/1001) кадра/сек, AVC (Main@L4) (CABAC / 1 Ref Frames)
Аудио#1: 192 Кбит/сек, 48,0 КГц, 2 канала, AAC LC
https://radikal.ru/video/NIoyKnNhSkS

Полное имя : D:\конверт фильмы\Страна чудес Вилли Willy's Wonderland (2021).mp4
Формат : MPEG-4
Профиль формата : Base Media
Идентификатор кодека : isom (isom/iso2/avc1/mp41)
Размер файла : 4,60 Гбайт
Продолжительность : 1 ч. 28 м.
Режим общего битрейта : Постоянный
Общий поток : 7 416 Кбит/сек
Программа кодирования : Lavf58.12.100

Видео
Идентификатор : 1
Формат : AVC
Формат/Информация : Advanced Video Codec
Профиль формата : Main@L4
Настройки формата : CABAC / 1 Ref Frames
Параметр CABAC формата : Да
Параметр RefFrames формата : 1 кадр
Параметр GOP формата : M=1, N=25
Идентификатор кодека : avc1
Идентификатор кодека/Информация : Advanced Video Coding
Продолжительность : 1 ч. 28 м.
Вид битрейта : Постоянный
Битрейт : 7 216 Кбит/сек
Ширина : 1 920 пикселей
Высота : 1 080 пикселей
Соотношение сторон : 16:9
Частота кадров : 23,976 (24000/1001) кадра/сек
Цветовое пространство : YUV
Субдискретизация насыщенности : 4:2:0
Битовая глубина : 8 бит
Тип развёртки : Прогрессивная
Бит/(Пиксели*Кадры) : 0.145
Размер потока : 4,48 Гбайт (97%)
Codec configuration box : avcC

Аудио
Идентификатор : 2
Формат : AAC LC
Формат/Информация : Advanced Audio Codec Low Complexity
Идентификатор кодека : mp4a-40-2
Продолжительность : 1 ч. 28 м.
Вид битрейта : Постоянный
Битрейт : 192 Кбит/сек
Каналы : 2 канала
Channel layout : L R
Частота : 48,0 КГц
Частота кадров : 46,875 кадров/сек (1024 SPF)
Метод сжатия : С потерями
Размер потока : 124 Мбайт (3%)
Default : Да
Alternate group : 1

pb.wtf



Скачать Страна Чудес Вилли через торрент https://i114.fastpic.ru/big/2021/0219/68/b21b3043e0ebcb9c61541ebc9e029a68.jpg Скачать фильм Страна Чудес Вилли через торрент бесплантно в хорошем качестве Описание: У молчаливого мужчины на спортивной машине неподалёку от небольшого городка пробивает колесо, и из-за отсутствия работающих ... 10 10 1
Торрент: Зарегистрирован [2021-02-18 15:13] · скачан: 4 раз
Статус: √ проверено
Размер: 4.6 GB
Как cкачать? Как скачать Страна Чудес Вилли через торрент | UTorrent

28-11-2019 20:33  

Отключить всю рекламу на сайте

    Дорогой пользователь! Огромная просьба, поблагодарите релизера, оцените раздачу и оставьте свои комментарий, если Вы скачали Страна Чудес Вилли через торрент бесплатно! Внесите свою лепту в развитие PiratBit!
    Комментировать посты могут только пользователи прошедшие не сложную регистрацию
    Показать сообщения:    

    Страна Чудес Вилли через торрент
    Скачать бесплатно Страна Чудес Вилли
    Страна Чудес Вилли скачать торрент
    Страна Чудес Вилли смотреть онлайн
    Cкачать фильм Страна Чудес Вилли бесплатно
    Страна Чудес Вилли скачать торрент в хорошем качестве
    Страна Чудес Вилли смотреть онлайн бесплатно в хорошем качестве


    Вы не можете начинать темы
    Вы не можете отвечать на сообщения
    Вы не можете редактировать свои сообщения
    Вы не можете удалять свои сообщения
    Вы не можете голосовать в опросах
    Вы не можете прикреплять файлы к сообщениям
    Вы можете скачивать файлы