Доктор Стрэндж

Лицензия

Добыча

Дубляж

Дом дракона

1 сезон

Тор

Дубляж

В эфире

Дубляж

Там, где раки поют

MVO

Властелин колец

1 сезон

Ultimate

pack

Рекомендуем

30

Пиратка

ВАЖНО

ВАЖНО

Ghostwire

Пиратка

jed

RePack

nioh2

RePack

RDR2

RePack

NEED FOR SPEED™ PAYBACK

RePack

скачать торрент

Кинопоиск HD

Острые козырьки 6 сезон

6 сезон

FAR CRY 6

RePack

скачать торрент

Лицензия

скачать торрент

MVO

1

1 сезон

скачать торрент

1 сезон

скачать торрент

Лицензия

  

Самогонщики / Пес Барбос и необычный кросс (Леонид Гайдай) [1961 г., Комедия, короткометражка, BDRip 720p / 60 FPS, Не требуется Русский] от R.G. HD-Films

Самогонщики через торрент pb.wtf

Размер: 1.6 GB | Добавлен: 1 год 9 мес. назад | Торрент скачан:77 раз
Смотреть онлайн | Скачать   

19-02-2021 17:18 Самогонщики Скачать торрент  

Самогонщики / Пес Барбос и необычный кросс
Год выпуска: 1961
Страна: СССР
Жанр: Комедия, короткометражка
Продолжительность: 00:29:26
Перевод: Не требуется Русский

Режиссер: Леонид Гайдай

Премьера в мире: 8 января 1962

rating

В ролях: Евгений Моргунов, Георгий Вицин, Юрий Никулин, Владимир Пицек

Описание:
Самогонщики:
Трус, Балбес и Бывалый решают поставить на широкую ногу изготовление самогона - и снова фиаско...

Пёс Барбос и необычный кросс:
Что есть главное средство для поддержания мужской дружбы и просто для увлекательного времяпрепровождения? Правильно, это рыбалка. Трус, Балбес и Бывалый решили испытать эту радость жизни на себе, но на свою беду взяли они с собой пса Барбоса...

Качество: BDRip 720p / 60 FPS
Формат: MKV
Видео кодек: H.264
Аудио кодек: AC3
Видео: x264, 986 x 720 ( 4:3 ), 7376 kbps, 60,000 fps, ( 0.173 bpp)
Аудио#1: Russian: 48 kHz, AC3, 5.1 ch, 16 bits, 384 kbps
Релиз от: Автор рипа: slaventi-69
Общее
Уникальный идентификатор : 197783858437444414890016904636450072495 (0x94CBC919AE5A9509F9B0D35B1F11E7AF)
Полное имя : E:\Samogonshiki.(1961).BDRip.720p.(60 Fps).mkv
Формат : Matroska
Версия формата : Version 4
Размер файла : 1,60 Гбайт
Продолжительность : 29 м. 26 с.
Общий поток : 7763 Кбит/сек
Название фильма : Самогонщики / Пес Барбос и необычный кросс (1961) BDRip 720p (60 Fps)
Дата кодирования : UTC 2021-02-19 16:49:43
Программа кодирования : mkvmerge v52.0.0 ('Secret For The Mad') 64-bit
Библиотека кодирования : libebml v1.4.1 + libmatroska v1.6.2

Видео
Идентификатор : 1
Формат : AVC
Формат/Информация : Advanced Video Codec
Профиль формата : [email protected]
Настройки формата : CABAC / 9 Ref Frames
Параметр CABAC формата : Да
Параметр RefFrames формата : 9 кадров
Идентификатор кодека : V_MPEG4/ISO/AVC
Продолжительность : 29 м. 26 с.
Битрейт : 7376 Кбит/сек
Ширина : 986 пикселей
Высота : 720 пикселей
Соотношение сторон : 4:3
Режим частоты кадров : Постоянный
Частота кадров : 60,000 кадров/сек
Цветовое пространство : YUV
Субдискретизация насыщенности : 4:2:0
Битовая глубина : 8 бит
Тип развёртки : Прогрессивная
Бит/(Пиксели*Кадры) : 0.173
Размер потока : 1,52 Гбайт (95%)
Заголовок : slaventi-69 ( R.G. HD-Films | 60 fps )
Библиотека кодирования : x264 core 157 r2958 57baac4
Настройки программы : cabac=1 / ref=9 / deblock=1:0:0 / analyse=0x3:0x133 / me=umh / subme=9 / psy=1 / psy_rd=1.00:0.00 / mixed_ref=1 / me_range=32 / chroma_me=1 / trellis=2 / 8x8dct=1 / cqm=0 / deadzone=21,11 / fast_pskip=0 / chroma_qp_offset=-2 / threads=10 / lookahead_threads=4 / sliced_threads=0 / nr=0 / decimate=1 / interlaced=0 / bluray_compat=0 / constrained_intra=0 / bframes=5 / b_pyramid=2 / b_adapt=2 / b_bias=0 / direct=2 / weightb=1 / open_gop=0 / weightp=2 / keyint=600 / keyint_min=60 / scenecut=40 / intra_refresh=0 / rc=crf / mbtree=0 / crf=15.0 / qcomp=0.60 / qpmin=0 / qpmax=69 / qpstep=4 / ip_ratio=1.40 / pb_ratio=1.30 / aq=1:1.00
Язык : Russian
Default : Да
Forced : Нет
Цветовой диапазон : Limited
Основные цвета : BT.709
Характеристики трансфера : BT.709
Коэффициенты матрицы : BT.709

Аудио
Идентификатор : 2
Формат : AC-3
Формат/Информация : Audio Coding 3
Коммерческое название : Dolby Digital
Идентификатор кодека : A_AC3
Продолжительность : 29 м. 26 с.
Вид битрейта : Постоянный
Битрейт : 384 Кбит/сек
Каналы : 6 каналов
Channel layout : L R C LFE Ls Rs
Частота : 48,0 КГц
Частота кадров : 31,250 кадров/сек (1536 SPF)
Битовая глубина : 16 бит
Метод сжатия : С потерями
Размер потока : 80,9 Мбайт (5%)
Язык : Russian
ServiceKind/String : Complete Main
Default : Да
Forced : Нет

Просьба к переливающим на другие сайты, в оформлении указывайте пожалуйста авторство группы R.G. HD-Films



Скачать Самогонщики через торрент http://i46.fastpic.ru/big/2013/0420/2b/85ddeeb0918172dd8cdebe1a19f6d62b.png Скачать, смотреть онлайн Самогонщики бесплантно в хорошем качестве Описание: Самогонщики:Трус, Балбес и Бывалый решают поставить на широкую ногу изготовление самогона - и снова фиаско...Пёс Барбос и ... 9.9 10 11
Торрент: Зарегистрирован [2021-02-19 17:18] · скачан: 77 раз
Статус: √ проверено
Размер: 1.6 GB
Как cкачать? Как скачать Самогонщики через торрент | UTorrent

% Раздел Тема Автор DL S | L
Кино СССР [ 559 MB ] Пес Барбос и необычный кросс. Самогонщики | | BDRip-AVC от AVP Studio AVP Studio Скачать
1 | 0
Кино СССР [ 1.09 GB ] Пес Барбос и необычный кросс. Самогонщики | | 720p от AVP Studio AVP Studio Скачать
2 | 0
Кино СССР [ 556 MB ] Пес Барбос и необычный кросс. Самогонщики | | BDRip от AVP Studio AVP Studio Скачать
1 | 0
Фильмы (HD 720p, 1080p) (48-60 fps) [ 3.24 GB ] Самогонщики | | 1080p / 60 FPS, Quatron Скачать
1 | 0
Фильмы (BDRip, HDrip-AVC) (48-60 fps) [ 563 MB ] Самогонщики | | BDRip-AVC, 60fps, Original Tiberiumsun69 Скачать
2 | 0
Кино СССР [ 266 MB ] Самогонщики | | DVDRip roller tm Скачать
1 | 0
Кино СССР [ 413 MB ] Пес Барбос и необычный кросс. Самогонщики | | DVDRip, Оригинал wekotila Скачать
1 | 0

28-11-2019 20:33  


Отключить вcю реклaмy на сайте, в т.ч. и в плеере онлайн просмотра!

19-02-2021 17:35 Самогонщики Скачать торрент  

    Дорогой пользователь! Огромная просьба, поблагодарите релизера, оцените раздачу и оставьте свои комментарий, если Вы скачали Самогонщики через торрент бесплатно!!
    Комментировать посты могут только пользователи прошедшие не сложную регистрацию
    Показать сообщения:    


    Самогонщики через торрент
    Скачать бесплатно Самогонщики
    Самогонщики скачать торрент
    Самогонщики смотреть онлайн
    Cкачать фильм Самогонщики бесплатно
    Самогонщики скачать торрент в хорошем качестве
    Самогонщики смотреть онлайн бесплатно в хорошем качестве
    Вы не можете начинать темы
    Вы не можете отвечать на сообщения
    Вы не можете редактировать свои сообщения
    Вы не можете удалять свои сообщения
    Вы не можете голосовать в опросах
    Вы не можете прикреплять файлы к сообщениям
    Вы можете скачивать файлы
    Самогонщики / Пес Барбос и необычный кросс [1961 г., Комедия, короткометражка, BDRip 720p / 60 FPS, Не требуется Русский] от R.G. HD-Films смотреть онлайн, скачать торрент picoco.icu