Достать ножи: Стеклянная луковица

MVO

Добыча

Дубляж

Уэнсдэй

1 сезон

Тор

Дубляж

13 клиническая

1 сезон

Жестокая ночь

MVO

Одни из нас

1 сезон

Deluxe

pack

Рекомендуем

30

Пиратка

ВАЖНО

ВАЖНО

Ghostwire

Пиратка

jed

RePack

nioh2

RePack

RDR2

RePack

NEED FOR SPEED™ PAYBACK

RePack

скачать торрент

Кинопоиск HD

Острые козырьки 6 сезон

6 сезон

FAR CRY 6

RePack

скачать торрент

Лицензия

скачать торрент

MVO

1

1 сезон

скачать торрент

1 сезон

скачать торрент

Лицензия

  

Засланец из космоса / Resident Alien / Сезон: 1 / Серии: 1-10 из 10 (Шеннон Коли, Дженнифер Фанг, Дэвид Добкин) [2021, Фантастика, драма, комедия, детектив, WEBRip] [MVO] (HDRezka)

Засланец из космоса через торрент pb.wtf

Раздают: 1 [ 0 KB/s ]
Размер: 5.42 GB | Добавлен: 1 год 9 мес. назад | Торрент скачан:81 раз
Смотреть онлайн | Скачать | Поддержите нас   

20-02-2021 08:43 Засланец из космоса Скачать торрент  

Засланец из космоса / Resident Alien
Год выпуска: 2021
Страна: США
Жанр: фантастика, драма, комедия, детектив
Продолжительность: 00:45:00
Перевод: Профессиональный (многоголосый закадровый) HDRezka

Режиссёр: Дэвид Добкин, Шеннон Коли, Дженнифер Фанг

В ролях: Алан Тьюдик, Сара Томко, Кори Рейнольдс, Элис Веттерлунд, Леви Филер, Линда Хэмилтон, Элизабет Бауэн, Манделл Мофан, Алекс Барима, Дженна Ламия

Описание: Доктор Гарри Вендершпигль — отшельник в небольшом городке в Колорадо. Ещё он — пришелец, который на самом деле упал на Землю и занял тело врача. Когда же доктора убивают, пришелец вынужден отложить миссию по возвращению домой и занять место убитого. Живя в новом теле, он постепенно начинает задаваться вопросами, стоят люди спасения или нет.

rating

Сэмпл
Релиз -- JuSSiKa

Качество: WEBRip
Формат: AVI
Видео: XviD, 720x400 (16:9), 23,976 fps, ~1500 kbps
Аудио Rus.: MP3, 48 kHz, 2 ch, 192 kbps
Субтитры: Русские (форсированные, вшитые)
Реклама: отсутствует
Полное имя                               : Resident.Alien.S01.WEBRip.Rus.HDRezka\Resident.Alien.S01E01.WEBRip.Rus.HDRezka.JuSSiKa.avi
Формат : AVI
Формат/Информация : Audio Video Interleave
Размер файла : 570 Мбайт
Продолжительность : 46 м. 22 с.
Общий поток : 1719 Кбит/сек
Программа кодирования : VirtualDubMod 1.5.10.3 (build 2550/release)
Библиотека кодирования : VirtualDubMod build 2550/release

Видео
Идентификатор : 0
Формат : MPEG-4 Visual
Профиль формата : Advanced [email protected]
Настройки формата : BVOP1
Параметр BVOP формата : 1
Параметр QPel формата : Нет
Параметр GMC формата : Без точки перехода
Параметр матрицы формата : Default (H.263)
Идентификатор кодека : XVID
Идентификатор кодека/Подсказка : XviD
Продолжительность : 46 м. 22 с.
Битрейт : 1518 Кбит/сек
Ширина : 720 пикселей
Высота : 400 пикселей
Соотношение сторон : 16:9
Частота кадров : 23,976 (24000/1001) кадра/сек
Частота кадров в оригинале : 23,976 (23976/1000) кадра/сек
Цветовое пространство : YUV
Субдискретизация насыщенности : 4:2:0
Битовая глубина : 8 бит
Тип развёртки : Прогрессивная
Метод сжатия : С потерями
Бит/(Пиксели*Кадры) : 0.220
Размер потока : 503 Мбайт (88%)
Библиотека кодирования : XviD 1.2.1 (UTC 2008-12-04)

Аудио
Идентификатор : 1
Формат : MPEG Audio
Версия формата : Version 1
Профиль формата : Layer 3
Идентификатор кодека : 55
Идентификатор кодека/Подсказка : MP3
Продолжительность : 46 м. 22 с.
Вид битрейта : Постоянный
Битрейт : 192 Кбит/сек
Каналы : 2 канала
Частота : 48,0 КГц
Метод сжатия : С потерями
Размер потока : 63,7 Мбайт (11%)
Выравнивание : Соединение по промежуткам
Продолжительность промежутка : 42 мс. (1,00 видеокадр)
Время предзагрузки промежутка : 504 мс.
скриншот  скриншот  скриншот  
Внимание! Раздача ведётся путём добавления новых серий; при каждом добавлении создаётся новый торрент.
Чтобы начать докачку новой серии, пользователям необходимо сделать следующее:
1. Остановить скачивание.
2. Удалить старый торрент у себя из клиента (старые серии удалять не надо).
3. Скачать новый торрент и запустить его у себя в клиенте вместо старого, при этом указать клиенту путь в старую папку куда и должно происходить скачивание новых серий.
Ваш клиент при этом должен произвести хеширование (проверку) старой папки (если не производит сам - помогите ему сделать это), и будет докачивать только те серии которых у вас ещё нет. Старые серии при этом не удаляются, а продолжают раздаваться!
Eсли вы уже удалили старые серии, то предотвратить повторную закачку старых серий можно, отжав галочку в соответствующих местах при запуске нового торрента.



Скачать Засланец из космоса через торрент https://i114.fastpic.ru/big/2021/0130/f9/471c89f0d510e9158a4f8f8661b5daf9.jpg?r=1 Скачать, смотреть онлайн Засланец из космоса бесплантно в хорошем качестве Описание: Доктор Гарри Вендершпигль — отшельник в небольшом городке в Колорадо. Ещё он — пришелец, который на самом деле упал на Землю и ... 10 10 7
Торрент: Зарегистрирован [2021-04-04 06:27] · скачан: 81 раз
Статус: √ проверено
Размер: 5.42 GB
Как cкачать? Как скачать Засланец из космоса через торрент | UTorrent

% Раздел Тема Автор DL S | L
Зарубежные сериалы [ 18.05 GB ] Засланец из космоса / Resident Alien / Сезон: 2 / Серии 1-16 из 16 | LostFilm | DLRip-AVC GEKADOL Скачать
2 | 1
Зарубежные сериалы [ 5.42 GB ] Засланец из космоса / Местный пришелец / Resident Alien / Сезон: 1 / Серии: 1-10 из 10 | MVO | WEBRip bober100 Скачать
1 | 0
Зарубежные сериалы [ 31.83 GB ] Засланец из космоса / Местный пришелец / Resident Alien / Сезон: 1 / Серии: 1-10 из 10 | MVO | 1080p bober100 Скачать
1 | 0
Зарубежные сериалы [ 7.29 GB ] Засланец из космоса / Resident Alien / Сезон: 1 / Серии 1-10 из 10 | LostFilm | DLRip-AVC GEKADOL Скачать
3 | 0
Зарубежные сериалы [ 6.64 GB ] Засланец из космоса / Местный пришелец / Resident Alien / Сезон: 1 / Серии: 1-10 из 10 | MVO | DLRip bober100 Скачать
2 | 0
Зарубежные сериалы [ 32.04 GB ] Засланец из космоса / Местный пришелец / Resident Alien / Сезон: 1 / Серии: 1-10 из 10 | MVO | 1080p bober100 Скачать
1 | 0
Зарубежные сериалы [ 34.35 GB ] Засланец из космоса / Местный пришелец / Resident Alien / Сезон: 1 / Серии: 1-10 из 10 | LostFilm | 1080p bober100 Скачать
1 | 0

28-11-2019 20:33  


Отключить вcю реклaмy на сайте, в т.ч. и в плеере онлайн просмотра!

04-04-2021 15:01 Засланец из космоса Скачать торрент  

Отличный, ржачный сериал!



    Дорогой пользователь! Огромная просьба, поблагодарите релизера, оцените раздачу и оставьте свои комментарий, если Вы скачали Засланец из космоса через торрент бесплатно!!
    Комментировать посты могут только пользователи прошедшие не сложную регистрацию
    Показать сообщения:    


    Засланец из космоса через торрент
    Скачать бесплатно Засланец из космоса
    Засланец из космоса скачать торрент
    Засланец из космоса смотреть онлайн
    Cкачать фильм Засланец из космоса бесплатно
    Засланец из космоса скачать торрент в хорошем качестве
    Засланец из космоса смотреть онлайн бесплатно в хорошем качестве
    Вы не можете начинать темы
    Вы не можете отвечать на сообщения
    Вы не можете редактировать свои сообщения
    Вы не можете удалять свои сообщения
    Вы не можете голосовать в опросах
    Вы не можете прикреплять файлы к сообщениям
    Вы можете скачивать файлы
    Засланец из космоса / Resident Alien / Сезон: 1 / Серии: 1-10 из 10 [2021, Фантастика, драма, комедия, детектив, WEBRip] [MVO] смотреть онлайн, скачать торрент picoco.icu