2 сезон

iTunes

WEBRip

1

2 сезон

iTunes

1 сезон

1 сезон

RePack

30

Новинка

ВАЖНО

ИГРА 18+

pack

RePack

MK11
pack

Легкие деньги

RePack

jed

RePack

fifa19

RePack

RDR2

RePack

NEED FOR SPEED™ PAYBACK

4 сезон

9 сезон

Бесстыжие 9 сезон

Все сериалы

все сериалы на PB.wtf

RePack

FAR CRY 5

Anonymous, добрый вечер, мы не успеваем собрать деньги на оплату серверов за февраль, помогите нам пожалуйста в это трудное время. В качестве благодарности мы отключим Вам всю рекламу на сайте (укажите свой ник в строку Ваше имя)!

×
  
Magnet ссылка

Линия горизонта / Horizon Line (Микаэль Марсимаин) [2020, Триллер, драма, приключения, BDRip (HEVC)1080p] DUB (rus, ukr) [iTunes] pb.wtf

Линия горизонта через торрент pb.wtf

Раздают: 5 [ 239 KB/s ]
Размер: 7.22 GB | Добавлен: 16 д. назад | Торрент скачан:65 раз
Скачать  

20-02-2021 13:06 Линия горизонта Скачать торрент  

Линия горизонта / Horizon Line
«Лети или умри»
Год выпуска: 2020
Страна: Швеция, США
Жанр: Триллер, драма, приключения
Продолжительность: 01:31:58
Перевод: Профессиональный (дублированный) | (iTunes)
Cубтитры: Английские (Full, SDH)




Режиссёр: Микаэль Марсимаин / Mikael Marcimain

В ролях: Эллисон Уильямс, Александр Дреймон, Кит Дэвид, Пёрл Маки, Джумэйн Хантер, Privilege Magezi, Stephano Honore, Brendon Pirogue, Christian Luis, Denis Allehany

Описание: Тропический остров. Свадьба друзей. Частный самолет… Все складывалось как нельзя лучше для Сары и Джексона, пока у пилота не случился сердечный приступ прямо в небе. Одни на огромной высоте, без всякой связи, а главное — без понятия, как посадить самолет. Вокруг только небо и штормовой океан.
rating

Тип релиза: BDRip 1080p
Контейнер: MKV
Видео кодек: x.265
Аудио кодек: AC3
Видео: HEVC , 9826 Кбит/с, 1920x804, 23.976 кадр/с, 10 бит
Аудио 1: Русский | AC-3, 6 ch, 384 Kbps, 48.0 kHz Dub iTunes
Аудио 2: Украинский | AC-3, 6 ch, 384 Kbps, 48.0 kHz Dub iTunes
Аудио 3: Английский | AC-3, 6 ch, 640 Kbps, 48.0 kHz

Формат субтитров: softsub (SRT)
Информация о x265: кадр I: 1269, Avg QP: 16.80 кб / с: 24084.04
Информация о x265: frame P: 26906, Avg QP: 17,82 кб / с: 14201,16
Информация о x265: frame B: 104128, Avg QP: 20,05 кб / с: 8521,32
-------------------------------------------------- ------------------
Общий
Уникальный ID: 293828575652178278996824502516940310105 (0xDD0D5342B3507642D71DBBA94B748659)
Полное название: D: ТоррентHorizon Line 2020.BDRip.1080p.HEVC.DUB.10bit.mikos.mkv
Формат: Matroska
Версия формата: Версия 4
Размер файла: 7,22 Гбайт
Продолжительность: 1 ч 31 мин
Общий битрейт: 11,2 Мбит / с
Название фильма: Horizon Line 2020.BDRip.1080p.HEVC.DUB.10bit.mikos
Дата кодирования: UTC 2021-02-18 15:43:23
Написание приложения: mkvmerge v53.0.0 ('Fool's Gold') 64-бит
Библиотека написания: libebml v1.4.1 + libmatroska v1.6.2

видео
ID: 1
Формат: HEVC
Формат / информация: высокоэффективное кодирование видео
Профиль формата: Main 10@L4.1 @High
Идентификатор кодека: V_MPEGH / ISO / HEVC
Продолжительность: 1 ч 31 мин
Битрейт: 9826 кбит / с
Ширина: 1920 пикселей
Высота: 804 пикселей
Соотношение сторон экрана: 2,40: 1
Режим частоты кадров: постоянный
Частота кадров: 23,976 (24000/1001) кадров в секунду
Цветовое пространство: YUV
Подвыборка цветности: 4: 2: 0
Битовая глубина: 10 бит
Биты / (пиксель * кадр): 0,265
Размер потока: 6,31 Гбайт (87%)
Название: Rip by mikos
Библиотека записи: x265 3.4 + 28-419182243: [Windows] [clang 11.0.0] [64 бит] 10 бит
Настройки кодирования: cpuid = 1111039 / frame-thread = 3 / numa -pool = 12 / wpp / no-pmode / no-pme / no-psnr / no-ssim / log-level = 3 / input-csp = 1 / input -res = 1920x804 / interlace = 0 / total-frames = 0 / level-idc = 41 / high-tier = 1 / uhd-bd = 0 / ref = 5 / allow-non-Complance / no-repeat-headers / applicationb / no-aud / no-hrd / info / hash = 0 / no-temporal-Layers / open-gop / min-keyint = 23 / keyint = 250 / gop-lookahead = 0 / bframes = 14 / b-adap = 2 / b-pyramid / bframe-bias = 0 / rc-lookahead = 60 / lookahead-sles = 5 / scenecut = 40 / hist-scenecut = 0 / radl = 0 / no-splice / no-intra-refresh / ctu = 32 / min-cu-size = 8 / no-rect / no-amp / max-tu-size = 32 / tu-inter-depth = 4 / tu-intra-depth = 4 / limit-tu = 1 / rdoq-level = 2 / динамический-rd = 0.00 / no-ssim-rd / signhide / no-tskip / nr-intra = 0 / nr-inter = 0 / no-constrained-intra / strong-intra-smoothing / max-merge = 5 / limit-refs = 3 / no-limit-Mode / me = 3 / subme = 7 / merange = 57 / temporal-mvp / no-frame-dup / no-hme / weightp / no-weightb / no-analysis-src-pics / deblock = -3 : -3 / no-sao / no-sao-non-deblock / rd = 4 / selected-sao = 0 / early-skip / no-rskip / no-fast-intra / no-tskip-fast / no-cu- без потерь / b-intra / no-splitrd-skip / rdpenalty = 0 / psy-rd = 2.00 / psy-rdoq = 1.00 / no-rd-Ref / no-lossless / cbqpoffs = 0 / crqpoffs = 0 / rc = crf / crf = 19.5 / qcomp = 0.70 / qpstep = 4 / stats-write = 0 / stats-read = 0 / vbv-maxrate = 50000 / vbv-bufsize = 50000 / vbv-init = 0.9 / min-vbv-fullness = 50.0 / max-vbv-fullness = 80.0 / crf-max = 30.0 / crf-min = 0.0 / ipratio = 1.40 / pbratio = 1.30 / aq-mode = 1 / aq-Strength = 0.90 / no-cutree / zone-count = 0 / no-strict-cbr / qg-size = 32 / no-rc-зерно / qpmax = 69 / qpmin = 0 / no-const-vbv / sar = 1 / overscan = 0 / videoformat = 5 / range = 0 / colorprim = 2 / transfer = 2 / colormatrix = 2 / chromaloc = 0 / display-window = 0 / cll = 0,0 / min-luma = 0 / max-luma = 1023 / log2-max-poc-lsb = 8 / vui-Timing-info / vui-hrd-info / sles = 1 / no-opt-qp-pps / no-opt-ref-list-length-pps / no-multi- pass-opt-rps / scenecut-bias = 0,05 / hist-threshold = 0,03 / no-opt-cu-delta-qp / no-aq-motion / no-hdr10 / no-hdr10-opt / no-dhdr10-opt / no-idr-recovery-sei / analysis-reuse-level = 0 / analysis-save-reuse-level = 0 / analysis-load-reuse-level = 0 / коэффициент масштабирования = 0 / уточнение-интра = 0 / уточнение- inter = 0 / Refin-mv = 1 / Refin-ctu-distortion = 0 / no-limit-sao / ctu-info = 0 / no-lowpass-dct / Refine-analysis-type = 0 / copy-pic = 1 / max-ausize-factor = 1.0 / без динамического уточнения / no-single-sei / no-hevc-aq / no-svt / no-field / qp-adaption-range = 1.00 / no-scenecut-known-qpconformance-window-offsets / right = 0 / дно = 0 / максимальная скорость декодера = 0 / no-vbv-live-multi-pass
Язык: Английский
По умолчанию: Да
Принудительно: Нет
Цветовая гамма: Ограниченная

Аудио # 1
ID: 2
Формат: AC-3
Формат / информация: Audio Coding 3
Коммерческое название: Dolby Digital
Идентификатор кодека: A_AC3
Продолжительность: 1 ч 31 мин
Режим битовой скорости: постоянный
Битрейт: 384 кб / с
Канал (ы): 6 каналов
Расположение каналов: LRC LFE Ls Rs
Частота дискретизации: 48,0 кГц
Частота кадров: 31,250 кадров в секунду (1536 SPF)
Режим сжатия: с потерями
Размер потока: 253 Мбайт (3%)
Название: iTunes
Язык: русский
Вид услуги: Полная основная
По умолчанию: Да
Принудительно: Нет

Аудио # 2
ID: 3
Формат: AC-3
Формат / информация: Audio Coding 3
Коммерческое название: Dolby Digital
Идентификатор кодека: A_AC3
Продолжительность: 1 ч 31 мин
Режим битовой скорости: постоянный
Битрейт: 384 кб / с
Канал (ы): 6 каналов
Расположение каналов: LRC LFE Ls Rs
Частота дискретизации: 48,0 кГц
Частота кадров: 31,250 кадров в секунду (1536 SPF)
Режим сжатия: с потерями
Размер потока: 253 Мбайт (3%)
Название: iTunes
Язык: украинский
Вид услуги: Полная основная
По умолчанию: Нет
Принудительно: Нет

Аудио # 3
ID: 4
Формат: AC-3
Формат / информация: Audio Coding 3
Коммерческое название: Dolby Digital
Идентификатор кодека: A_AC3
Продолжительность: 1 ч 31 мин
Режим битовой скорости: постоянный
Битрейт: 640 кб / с
Канал (ы): 6 каналов
Расположение каналов: LRC LFE Ls Rs
Частота дискретизации: 48,0 кГц
Частота кадров: 31,250 кадров в секунду (1536 SPF)
Режим сжатия: с потерями
Размер потока: 421 Мбайт (6%)
Название: Оригинал
Язык: Английский
Вид услуги: Полная основная
По умолчанию: Нет
Принудительно: Нет

Текст 1
ID: 5
Формат: UTF-8
Идентификатор кодека: S_TEXT / UTF8
Идентификатор кодека / информация: UTF-8 Plain Text
Продолжительность: 1 ч 20 мин
Битрейт: 42 бит / с
Количество элементов: 866
Размер потока: 25,1 Кбайт (0%)
Название: Полный
Язык: Английский
По умолчанию: Да
Принудительно: Нет

Текст # 2
ID: 6
Формат: UTF-8
Идентификатор кодека: S_TEXT / UTF8
Идентификатор кодека / информация: UTF-8 Plain Text
Продолжительность: 1 ч 22 мин
Битрейт: 48 бит / с
Количество элементов: 1053
Размер потока: 29,2 Кбайт (0%)
Название: SDH
Язык: Английский
По умолчанию: Нет
Принудительно: Нет

Меню
00: 00: 00.000:: Глава 01
00: 05: 02.719:: Глава 02
00: 08: 35.806:: Глава 03
00: 12: 02.638:: Глава 04
00: 14: 43.757:: Глава 05
00: 17: 57.117:: Глава 06
00: 23: 35.705:: Глава 07
00: 29: 23.720:: Глава 08
00: 31: 57.206:: Глава 09
00: 38: 58.919:: Глава 10
00: 42: 30.965:: Глава 11
00: 48: 51.511:: Глава 12
00: 53: 58.610:: Глава 13
00: 58: 11.237:: Глава 14
01: 04: 53.890:: Глава 15
01: 08: 17.510:: Глава 16
01: 12: 32.890:: Глава 17
01: 15: 26.730:: Глава 18
01: 18: 29.079:: Глава 19
01: 23: 45.103:: Глава 20
скриншот  скриншот  скриншот  
pb.wtf



Скачать Линия горизонта через торрент https://i114.fastpic.ru/big/2021/0218/77/97ee62c220e4d00602a448596e40d377.jpg Скачать фильм Линия горизонта через торрент бесплантно в хорошем качестве Описание: Тропический остров. Свадьба друзей. Частный самолет… Все складывалось как нельзя лучше для Сары и Джексона, пока у пилота не ... 7.8 10 5
Торрент: Зарегистрирован [2021-02-20 13:06] · скачан: 65 раз
Статус: √ проверено
Размер: 7.22 GB
Как cкачать? Как скачать Линия горизонта через торрент | UTorrent

% Раздел Тема Автор DL S | L
Фильмы 2019-2020 [DVDrip, WEB-DLRip, HDrip] (DUB, MVO) [ 1.42 GB ] Линия горизонта / Horizon Line [2020 BDRip] - Twi7ter Скачать
74 | 3
T Ultra HD (UHD: 2K, 4K, 8K) — видео сверхвысокой чёткости [ 10.14 GB ] Линия горизонта / Horizon Line [2020 UHD WEB-DL 2160p] DUB [Line] bober100 Скачать
6 | 1
Фильмы (Blu-ray, BD-Remux, HDDVD) [ 24.24 GB ] Линия горизонта / Horizon Line [2020 BD Remux 1080p] DUB bober100 Скачать
1 | 0
Фильмы [HD 720p, 1080p] (Хороший звук DUB, MVO) [ 5 GB ] Линия горизонта / Horizon Line [2020 BDRip 720p] DUB bober100 Скачать
5 | 0
Фильмы 2019-2020 [DVDrip, WEB-DLRip, HDrip] (DUB, MVO) [ 746 MB ] Линия горизонта / Horizon Line [2020 BDRip] bober100 Скачать
2 | 0
Фильмы 2019-2020 [DVDrip, WEB-DLRip, HDrip] (DUB, MVO) [ 1.42 GB ] Линия горизонта / Horizon Line [2020 BDRip] bober100 Скачать
11 | 0
Фильмы [HD 720p, 1080p] (Хороший звук DUB, MVO) [ 10.26 GB ] Линия горизонта / Horizon Line [2020 BDRip 1080p] DUB bober100 Скачать
8 | 1

28-11-2019 20:33  

Отключить всю рекламу на сайте

20-02-2021 16:14 Линия горизонта Скачать торрент  

killermax2013, спасибо за труды, но телик не подхватил. позже переведу в друой форматpb.wtf



    Дорогой пользователь! Огромная просьба, поблагодарите релизера, оцените раздачу и оставьте свои комментарий, если Вы скачали Линия горизонта через торрент бесплатно! Внесите свою лепту в развитие PiratBit!
    Комментировать посты могут только пользователи прошедшие не сложную регистрацию
    Показать сообщения:    

    Линия горизонта через торрент
    Скачать бесплатно Линия горизонта
    Линия горизонта скачать торрент
    Линия горизонта смотреть онлайн
    Cкачать фильм Линия горизонта бесплатно
    Линия горизонта скачать торрент в хорошем качестве
    Линия горизонта смотреть онлайн бесплатно в хорошем качестве


    Вы не можете начинать темы
    Вы не можете отвечать на сообщения
    Вы не можете редактировать свои сообщения
    Вы не можете удалять свои сообщения
    Вы не можете голосовать в опросах
    Вы не можете прикреплять файлы к сообщениям
    Вы можете скачивать файлы