2 сезон

iTunes

WEBRip

1

2 сезон

iTunes

1 сезон

1 сезон

RePack

30

Новинка

ВАЖНО

ИГРА 18+

pack

RePack

MK11
pack

Легкие деньги

RePack

jed

RePack

fifa19

RePack

RDR2

RePack

NEED FOR SPEED™ PAYBACK

4 сезон

9 сезон

Бесстыжие 9 сезон

Все сериалы

все сериалы на PB.wtf

RePack

FAR CRY 5

Anonymous, доброй ночи, мы не успеваем собрать деньги на оплату серверов за февраль, помогите нам пожалуйста в это трудное время. В качестве благодарности мы отключим Вам всю рекламу на сайте (укажите свой ник в строку Ваше имя)!

×
  
Magnet ссылка

Королевский гамбит / Critical Thinking (Джон Легуизамо) [2020, Драма, WEB-DLRip-AVC] [DUB] [iTunes] от MediaBit pb.wtf

Королевский гамбит через торрент pb.wtf

Раздают: 6 [ 0 KB/s ]
Размер: 1.45 GB | Добавлен: 10 д. назад | Торрент скачан:73 раза
Скачать  

21-02-2021 14:22 Королевский гамбит Скачать торрент  


Королевский гамбит / Critical Thinking
Информация о фильме:
Название: Королевский гамбит
Оригинальное название: Critical Thinking
Год выхода: 2020
Жанр: Драма
Режиссер: Джон Легуизамо

В ролях: Джон Легуизамо, Рэйчел Бэй Джонс, Майкл Кеннет Уильямс, Коруин С. Тагглс, Хорхе Лендеборг мл., Энджел Куриэль, Джеффри Батиста, Уилл Хохман, Зора Касебере, Рамсес Хименес

Описание: Марио «Мистер Ти» Мартинез ведет факультатив шахмат для подростков из неблагополучных семей. От остальных учителей его отличает легкий стиль общения, эмпатия и высокий интеллект. На улицах города творится беспредел, подростки здесь постоянно попадают в неприятности, и многие берутся за самые рискованные дела, чтобы выжить. Какие тут могут быть шахматы? Но Мартинез искренне верит в своих учеников. Смогут ли ребята из гетто играть на равных с игроками национального турнира по шахматам?



Страна: США
Студия: Cinema Veritas, Critical thinking, Hialeah Park Studios, NRSP, Perfect Balance
Продолжительность: 01:50:40
Перевод: Профессиональный (полное дублирование) - iTunes



Информация о файле:
Кодек: AVC
Формат: MKV
Качество: WEB-DLRip-AVC
Видео: MPEG-4 AVC, 1024x428, 24.000 fps, 1492 kbps
Аудио RU: AC3, 6 ch, 48 kHz, 384 kbps
Субтитры: Отсутсвуют
Навигация по главам: Да

x264 info: frame I:1345 Avg QP:15.33 size: 51033
x264 info: frame P:40603 Avg QP:18.67 size: 16716
x264 info: frame B:117422 Avg QP:21.33 size: 4152
x264 info: consecutive B-frames: 2.2% 4.9% 7.3% 56.1% 11.3% 15.2% 1.7% 0.9% 0.1% 0.1% 0.1%
********************************
General
Unique ID : 115881131702067185803951788202741031075 (0x572DE4E73D8E025DE2E8E185E11560A3)
Complete name : D:uTorrentРипы_от_wolf1245_MediaBitCritical Thinking.2020.DUB.iTunes.WEB-DLRip-AVC_wolf1245_MediaBit.mkv
Format : Matroska
Format version : Version 4
File size : 1.45 GiB
Duration : 1 h 50 min
Overall bit rate : 1 876 kb/s
Movie name : Critical Thinking.2020.DUB.iTunes.WEB-DLRip-AVC_wolf1245_MediaBit
Encoded date : UTC 2021-02-21 14:08:53
Writing application : mkvmerge v53.0.0 ('Fool's Gold') 64-bit
Writing library : libebml v1.4.1 + libmatroska v1.6.2
Video
ID : 1
Format : AVC
Format/Info : Advanced Video Codec
Format profile : High@L4.1
Format settings : CABAC / 12 Ref Frames
Format settings, CABAC : Yes
Format settings, Reference frames : 12 frames
Codec ID : V_MPEG4/ISO/AVC
Duration : 1 h 50 min
Bit rate : 1 492 kb/s
Width : 1 024 pixels
Height : 428 pixels
Display aspect ratio : 2.40:1
Frame rate mode : Constant
Frame rate : 24.000 FPS
Color space : YUV
Chroma subsampling : 4:2:0
Bit depth : 8 bits
Scan type : Progressive
Bits/(Pixel*Frame) : 0.142
Stream size : 1.15 GiB (79%)
Title : _wolf1245_MediaBit
Writing library : x264 core 157 r2958 57baac4
Encoding settings : cabac=1 / ref=12 / deblock=1:-3:-3 / analyse=0x3:0x133 / me=umh / subme=10 / psy=1 / psy_rd=1.05:0.03 / mixed_ref=1 / me_range=32 / chroma_me=1 / trellis=2 / 8x8dct=1 / cqm=0 / deadzone=21,11 / fast_pskip=1 / chroma_qp_offset=-3 / threads=10 / lookahead_threads=2 / sliced_threads=0 / nr=0 / decimate=1 / interlaced=0 / bluray_compat=0 / constrained_intra=0 / bframes=10 / b_pyramid=2 / b_adapt=2 / b_bias=0 / direct=3 / weightb=1 / open_gop=0 / weightp=2 / keyint=240 / keyint_min=24 / scenecut=40 / intra_refresh=0 / rc_lookahead=60 / rc=2pass / mbtree=1 / bitrate=1492 / ratetol=1.0 / qcomp=0.60 / qpmin=0 / qpmax=69 / qpstep=4 / cplxblur=20.0 / qblur=0.5 / vbv_maxrate=50000 / vbv_bufsize=62500 / nal_hrd=none / filler=0 / ip_ratio=1.40 / aq=1:0.80
Language : English
Default : Yes
Forced : No
Color range : Limited
Color primaries : BT.709
Transfer characteristics : BT.709
Matrix coefficients : BT.709
Audio
ID : 2
Format : AC-3
Format/Info : Audio Coding 3
Commercial name : Dolby Digital
Codec ID : A_AC3
Duration : 1 h 50 min
Bit rate mode : Constant
Bit rate : 384 kb/s
Channel(s) : 6 channels
Channel layout : L R C LFE Ls Rs
Sampling rate : 48.0 kHz
Frame rate : 31.250 FPS (1536 SPF)
Compression mode : Lossy
Stream size : 304 MiB (20%)
Title : DUB | iTunes
Language : Russian
Service kind : Complete Main
Default : Yes
Forced : No
Menu
00:00:00.000 : :Глава 1
00:02:46.541 : :Глава 2
00:11:53.582 : :Глава 3
00:17:56.832 : :Глава 4
00:21:30.457 : :Глава 5
00:31:33.165 : :Глава 6
00:39:25.706 : :Глава 7
00:45:33.289 : :Глава 8
00:51:50.580 : :Глава 9
00:56:56.663 : :Глава 10
01:01:57.621 : :Глава 11
01:07:32.746 : :Глава 12
01:13:18.246 : :Глава 13
01:20:40.621 : :Глава 14
01:28:03.996 : :Глава 15
01:32:00.079 : :Глава 16
01:41:00.329 : :Глава 16
Релиз от: &

Автор релиза:
pb.wtf



Скачать Королевский гамбит через торрент https://i114.fastpic.ru/big/2021/0221/53/054c11a7dea1edb0eb5249876dca6253.png Скачать фильм Королевский гамбит через торрент бесплантно в хорошем качестве Описание: Марио «Мистер Ти» Мартинез ведет факультатив шахмат для подростков из неблагополучных семей. От остальных учителей его отличает ... 10 10 2
Торрент: Зарегистрирован [2021-02-21 14:22] · скачан: 73 раз
Статус: √ проверено
Размер: 1.45 GB
Как cкачать? Как скачать Королевский гамбит через торрент | UTorrent

28-11-2019 20:33  

Отключить всю рекламу на сайте

    Дорогой пользователь! Огромная просьба, поблагодарите релизера, оцените раздачу и оставьте свои комментарий, если Вы скачали Королевский гамбит через торрент бесплатно! Внесите свою лепту в развитие PiratBit!
    Комментировать посты могут только пользователи прошедшие не сложную регистрацию
    Показать сообщения:    

    Королевский гамбит через торрент
    Скачать бесплатно Королевский гамбит
    Королевский гамбит скачать торрент
    Королевский гамбит смотреть онлайн
    Cкачать фильм Королевский гамбит бесплатно
    Королевский гамбит скачать торрент в хорошем качестве
    Королевский гамбит смотреть онлайн бесплатно в хорошем качестве


    Вы не можете начинать темы
    Вы не можете отвечать на сообщения
    Вы не можете редактировать свои сообщения
    Вы не можете удалять свои сообщения
    Вы не можете голосовать в опросах
    Вы не можете прикреплять файлы к сообщениям
    Вы можете скачивать файлы