2 сезон

iTunes

WEBRip

1

2 сезон

iTunes

1 сезон

1 сезон

RePack

30

Новинка

ВАЖНО

ИГРА 18+

pack

RePack

MK11
pack

Легкие деньги

RePack

jed

RePack

fifa19

RePack

RDR2

RePack

NEED FOR SPEED™ PAYBACK

4 сезон

9 сезон

Бесстыжие 9 сезон

Все сериалы

все сериалы на PB.wtf

RePack

FAR CRY 5

Anonymous, доброе утро, мы не успеваем собрать деньги на оплату серверов за февраль, помогите нам пожалуйста в это трудное время. В качестве благодарности мы отключим Вам всю рекламу на сайте (укажите свой ник в строку Ваше имя)!

×
  
Magnet ссылка

Роксана / Roxanne (Фред Скеписи) [1987, мелодрама, комедия, BDRip-HEVC 1080p] 3хMVO + DVO + 2xAVO pb.wtf

Роксана через торрент pb.wtf

Раздают: 2 [ 10 KB/s ]
Размер: 5.67 GB | Добавлен: 10 д. назад | Торрент скачан:14 раз
Скачать  

21-02-2021 17:47 Роксана Скачать торрент  

Название: Роксана
Оригинальное название: Roxanne
Год производства: 1987
Жанр: мелодрама, комедия
Режиссер: Фред Скеписи
В ролях: Стив Мартин, Дэрил Ханна, Рик Россович, Шелли Дювалл, Джон Капелос, Фред Уиллард, Макс Александр, Майкл Дж. Поллард, Стив Миттлман, Дэймон Уайанс

О фильме: Судьба довольно жестоко подшутила над пожарным Си Ди Бэйлзом, наградив его вдобавок к большой душе непомерно большим... носом! Все в городке его уважают, но из-за одиозной внешности у него совсем не клеится с женщинами. А ведь сердцу не прикажешь! И когда в городке появляется романтичная и добрая красавица Роксана, герой безнадёжно влюбляется в эту прелестную чудачку. Вот только какие у него шансы? — ведь вниманием Роксаны уже завладел местный мачо Крис, подчинённый Бэйлза. Правда, выдающееся косноязычие и неотёсанность Криса не дают герою шанс признаться в своих чувствах: Бэйлз, поэт в душе, соглашается тайно вместо него писать Роксане любовные послания. Но когда-нибудь всё тайное станет явным...



Страна: США
Студия: Columbia Pictures Industries Inc., IndieProd Company Productions, L.A. Films
Продолжительность: 01:46:51
Перевод: профессиональный многоголосый, профессиональный двухголосый, авторский одноголосый

Качество: BDRip-HEVC 1080p
Кодек: HEVC (x265)
Видео: 1920x800 (2.40:1), 5808 Кбит/сек, HEVC (Main10@L.4.1@High) 10 бит
Звук:
Аудио1: AC3, 2 ch, 192 Kbps - Русский, Многоголосый (ВидеоСервис)
Аудио2: AC3, 2 ch, 192 Kbps - Русский, Многоголосый (Первый канал)
Аудио3: AC3, 2 ch, 192 Kbps - Русский, Авторский (Алексей Михалёв)
Аудио4: AC3, 2 ch, 192 Kbps - Русский, Авторский (Леонид Володарский)
Аудио5: AC3, 2 ch, 192 Kbps - Украинский, Многоголосый (ICTV)
Аудио6: AC3, 2 ch, 192 Kbps - Украинский, Двухголосый (2+2)
Аудио7: AC3, 6 ch, 640 Kbps - English, Original
Субтитры: Русские полные (SRT), English full (SRT)
Навигация по главам: Есть
x265 [info]: frame I: 647, Avg QP:17.32 kb/s: 24301.58
x265 [info]: frame P: 33897, Avg QP:18.73 kb/s: 14597.33
x265 [info]: frame B: 119129, Avg QP:20.77 kb/s: 3205.73
x265 [info]: Weighted P-Frames: Y:7.4% UV:5.3%
x265 [info]: Weighted B-Frames: Y:3.7% UV:2.4%
x265 [info]: consecutive B-frames: 0.9% 1.7% 5.2% 63.3% 5.7% 20.6% 1.6% 0.7% 0.2% 0.1% 0.1%
x265 [info]: encoded 153673 frames in 118961.40s (1.29 fps), 5807.29 kb/s, Avg QP:20.31
Общее
Уникальный идентификатор : 28601036338095472549095567012120270183 (0x15845BF6A7A5376E05C0AB8D71209567)
Полное имя : \\.\Роксана.Roxanne.1987.AUS.Transfer.BDRip-HEVC.1080p.mkv
Формат : Matroska
Версия формата : Version 4
Размер файла : 5,67 Гбайт
Продолжительность : 1 ч. 46 м.
Общий поток : 7 603 Кбит/сек
Название фильма : Роксана.Roxanne.1987.AUS.Transfer.BDRip-HEVC.1080p
Дата кодирования : UTC 2021-02-21 17:08:52
Программа кодирования : mkvmerge v53.0.0 ('Fool's Gold') 64-bit
Библиотека кодирования : libebml v1.4.1 + libmatroska v1.6.2
Attachments : poster.png

Видео
Идентификатор : 1
Формат : HEVC
Формат/Информация : High Efficiency Video Coding
Профиль формата : Main 10@L4.1@High
Идентификатор кодека : V_MPEGH/ISO/HEVC
Продолжительность : 1 ч. 46 м.
Битрейт : 5 808 Кбит/сек
Ширина : 1 920 пикселей
Высота : 800 пикселей
Соотношение сторон : 2,40:1
Режим частоты кадров : Постоянный
Частота кадров : 23,976 (24000/1001) кадра/сек
Цветовое пространство : YUV
Субдискретизация насыщенности : 4:2:0
Битовая глубина : 10 бит
Бит/(Пиксели*Кадры) : 0.158
Размер потока : 4,33 Гбайт (76%)
Заголовок : Roxanne / Rip by OldGamer
Библиотека кодирования : x265 3.4+12-g9103319fc:[Windows][GCC 10.2.0][64 bit] 10bit
Настройки программы : cpuid=1111039 / frame-threads=3 / numa-pools=8 / wpp / no-pmode / no-pme / no-psnr / no-ssim / log-level=2 / input-csp=1 / input-res=1920x800 / interlace=0 / total-frames=153673 / level-idc=41 / high-tier=1 / uhd-bd=0 / ref=5 / no-allow-non-conformance / no-repeat-headers / annexb / no-aud / no-hrd / info / hash=0 / no-temporal-layers / open-gop / min-keyint=23 / keyint=240 / gop-lookahead=0 / bframes=10 / b-adapt=2 / b-pyramid / bframe-bias=0 / rc-lookahead=40 / lookahead-slices=0 / scenecut=40 / hist-scenecut=0 / radl=0 / no-splice / no-intra-refresh / ctu=32 / min-cu-size=8 / rect / amp / max-tu-size=32 / tu-inter-depth=4 / tu-intra-depth=4 / limit-tu=1 / rdoq-level=2 / dynamic-rd=0.00 / no-ssim-rd / signhide / no-tskip / nr-intra=0 / nr-inter=0 / no-constrained-intra / no-strong-intra-smoothing / max-merge=5 / limit-refs=3 / no-limit-modes / me=3 / subme=7 / merange=57 / temporal-mvp / no-frame-dup / no-hme / weightp / weightb / no-analyze-src-pics / deblock=-3:-3 / no-sao / no-sao-non-deblock / rd=6 / selective-sao=0 / no-early-skip / rskip / no-fast-intra / no-tskip-fast / no-cu-lossless / b-intra / no-splitrd-skip / rdpenalty=0 / psy-rd=2.00 / psy-rdoq=1.00 / no-rd-refine / no-lossless / cbqpoffs=0 / crqpoffs=0 / rc=crf / crf=19.0 / qcomp=0.60 / qpstep=4 / stats-write=0 / stats-read=0 / vbv-maxrate=50000 / vbv-bufsize=50000 / vbv-init=0.9 / crf-max=0.0 / crf-min=0.0 / ipratio=1.40 / pbratio=1.30 / aq-mode=1 / aq-strength=1.00 / no-cutree / zone-count=1 / zones: / start-frame=149669 / end-frame=153673 / qp=36 / no-strict-cbr / qg-size=32 / no-rc-grain / qpmax=69 / qpmin=0 / no-const-vbv / sar=1 / overscan=0 / videoformat=5 / range=0 / colorprim=2 / transfer=2 / colormatrix=2 / chromaloc=0 / display-window=0 / cll=0,0 / min-luma=0 / max-luma=1023 / log2-max-poc-lsb=8 / vui-timing-info / vui-hrd-info / slices=1 / no-opt-qp-pps / no-opt-ref-list-length-pps / no-multi-pass-opt-rps / scenecut-bias=0.00 / hist-threshold=0.01 / no-opt-cu-delta-qp / no-aq-motion / no-hdr10 / no-hdr10-opt / no-dhdr10-opt / no-idr-recovery-sei / analysis-reuse-level=0 / analysis-save-reuse-level=0 / analysis-load-reuse-level=0 / scale-factor=0 / refine-intra=0 / refine-inter=0 / refine-mv=1 / refine-ctu-distortion=0 / no-limit-sao / ctu-info=0 / no-lowpass-dct / refine-analysis-type=0 / copy-pic=1 / max-ausize-factor=1.0 / no-dynamic-refine / no-single-sei / no-hevc-aq / no-svt / no-field / qp-adaptation-range=1.00 / no-scenecut-aware-qpconformance-window-offsets / right=0 / bottom=0 / decoder-max-rate=0
Язык : English
Default : Да
Forced : Нет

Аудио #1
Идентификатор : 2
Формат : AC-3
Формат/Информация : Audio Coding 3
Коммерческое название : Dolby Digital
Идентификатор кодека : A_AC3
Продолжительность : 1 ч. 46 м.
Вид битрейта : Постоянный
Битрейт : 192 Кбит/сек
Каналы : 2 канала
Channel layout : L R
Частота : 48,0 КГц
Частота кадров : 31,250 кадров/сек (1536 SPF)
Метод сжатия : С потерями
Размер потока : 147 Мбайт (3%)
Заголовок : MVO (ВидеоСервис)
Язык : Russian
Service kind : Complete Main
Default : Да
Forced : Нет

Аудио #2
Идентификатор : 3
Формат : AC-3
Формат/Информация : Audio Coding 3
Коммерческое название : Dolby Digital
Идентификатор кодека : A_AC3
Продолжительность : 1 ч. 46 м.
Вид битрейта : Постоянный
Битрейт : 192 Кбит/сек
Каналы : 2 канала
Channel layout : L R
Частота : 48,0 КГц
Частота кадров : 31,250 кадров/сек (1536 SPF)
Метод сжатия : С потерями
Размер потока : 147 Мбайт (3%)
Заголовок : MVO (Первый канал)
Язык : Russian
Service kind : Complete Main
Default : Нет
Forced : Нет

Аудио #3
Идентификатор : 4
Формат : AC-3
Формат/Информация : Audio Coding 3
Коммерческое название : Dolby Digital
Идентификатор кодека : A_AC3
Продолжительность : 1 ч. 46 м.
Вид битрейта : Постоянный
Битрейт : 192 Кбит/сек
Каналы : 2 канала
Channel layout : L R
Частота : 48,0 КГц
Частота кадров : 31,250 кадров/сек (1536 SPF)
Метод сжатия : С потерями
Размер потока : 147 Мбайт (3%)
Заголовок : AVO (Алексей Михалёв)
Язык : Russian
Service kind : Complete Main
Default : Нет
Forced : Нет

Аудио #4
Идентификатор : 5
Формат : AC-3
Формат/Информация : Audio Coding 3
Коммерческое название : Dolby Digital
Идентификатор кодека : A_AC3
Продолжительность : 1 ч. 46 м.
Вид битрейта : Постоянный
Битрейт : 192 Кбит/сек
Каналы : 2 канала
Channel layout : L R
Частота : 48,0 КГц
Частота кадров : 31,250 кадров/сек (1536 SPF)
Метод сжатия : С потерями
Размер потока : 147 Мбайт (3%)
Заголовок : AVO (Леонид Володарский)
Язык : Russian
Service kind : Complete Main
Default : Нет
Forced : Нет

Аудио #5
Идентификатор : 6
Формат : AC-3
Формат/Информация : Audio Coding 3
Коммерческое название : Dolby Digital
Идентификатор кодека : A_AC3
Продолжительность : 1 ч. 46 м.
Вид битрейта : Постоянный
Битрейт : 192 Кбит/сек
Каналы : 2 канала
Channel layout : L R
Частота : 48,0 КГц
Частота кадров : 31,250 кадров/сек (1536 SPF)
Метод сжатия : С потерями
Размер потока : 147 Мбайт (3%)
Заголовок : MVO (ICTV)
Язык : Ukrainian
Service kind : Complete Main
Default : Нет
Forced : Нет

Аудио #6
Идентификатор : 7
Формат : AC-3
Формат/Информация : Audio Coding 3
Коммерческое название : Dolby Digital
Идентификатор кодека : A_AC3
Продолжительность : 1 ч. 46 м.
Вид битрейта : Постоянный
Битрейт : 192 Кбит/сек
Каналы : 2 канала
Channel layout : L R
Частота : 48,0 КГц
Частота кадров : 31,250 кадров/сек (1536 SPF)
Метод сжатия : С потерями
Размер потока : 147 Мбайт (3%)
Заголовок : DVO (2+2)
Язык : Ukrainian
Service kind : Complete Main
Default : Нет
Forced : Нет

Аудио #7
Идентификатор : 8
Формат : AC-3
Формат/Информация : Audio Coding 3
Коммерческое название : Dolby Digital
Идентификатор кодека : A_AC3
Продолжительность : 1 ч. 46 м.
Вид битрейта : Постоянный
Битрейт : 640 Кбит/сек
Каналы : 6 каналов
Channel layout : L R C LFE Ls Rs
Частота : 48,0 КГц
Частота кадров : 31,250 кадров/сек (1536 SPF)
Метод сжатия : С потерями
Размер потока : 489 Мбайт (8%)
Язык : English
Service kind : Complete Main
Default : Нет
Forced : Нет

Текст #1
Идентификатор : 9
Формат : UTF-8
Идентификатор кодека : S_TEXT/UTF8
Идентификатор кодека/Информация : UTF-8 Plain Text
Продолжительность : 1 ч. 43 м.
Битрейт : 114 бит/сек
Count of elements : 1574
Размер потока : 87,5 Кбайт (0%)
Язык : Russian
Default : Нет
Forced : Нет

Текст #2
Идентификатор : 10
Формат : UTF-8
Идентификатор кодека : S_TEXT/UTF8
Идентификатор кодека/Информация : UTF-8 Plain Text
Продолжительность : 1 ч. 43 м.
Битрейт : 72 бит/сек
Count of elements : 1789
Размер потока : 55,5 Кбайт (0%)
Язык : English
Default : Нет
Forced : Нет

Меню
00:00:00.000 : en:Глава 01
00:00:01.751 : en:Глава 02
00:07:50.678 : en:Глава 03
00:20:17.090 : en:Глава 04
00:29:14.794 : en:Глава 05
00:39:42.505 : en:Глава 06
00:49:02.481 : en:Глава 07
00:59:35.280 : en:Глава 08
01:06:09.799 : en:Глава 09
01:16:09.940 : en:Глава 10
01:25:28.832 : en:Глава 11
01:36:15.853 : en:Глава 12
01:44:03.904 : en:Глава 13


Релиз от: OldGamerpb.wtf



Скачать Роксана через торрент https://img11.lostpic.net/2021/02/21/f632f304d5a28681da3c23ee130e7e6a.jpg Скачать фильм Роксана через торрент бесплантно в хорошем качестве О фильме: Судьба довольно жестоко подшутила над пожарным Си Ди Бэйлзом, наградив его вдобавок к большой душе непомерно большим... носом! ... 10 10 1
Торрент: Зарегистрирован [2021-02-21 17:47] · скачан: 14 раз
Статус: √ проверено
Размер: 5.67 GB
Как cкачать? Как скачать Роксана через торрент | UTorrent

28-11-2019 20:33  

Отключить всю рекламу на сайте

    Дорогой пользователь! Огромная просьба, поблагодарите релизера, оцените раздачу и оставьте свои комментарий, если Вы скачали Роксана через торрент бесплатно! Внесите свою лепту в развитие PiratBit!
    Комментировать посты могут только пользователи прошедшие не сложную регистрацию
    Показать сообщения:    

    Роксана через торрент
    Скачать бесплатно Роксана
    Роксана скачать торрент
    Роксана смотреть онлайн
    Cкачать фильм Роксана бесплатно
    Роксана скачать торрент в хорошем качестве
    Роксана смотреть онлайн бесплатно в хорошем качестве


    Вы не можете начинать темы
    Вы не можете отвечать на сообщения
    Вы не можете редактировать свои сообщения
    Вы не можете удалять свои сообщения
    Вы не можете голосовать в опросах
    Вы не можете прикреплять файлы к сообщениям
    Вы можете скачивать файлы