2 сезон

iTunes

WEBRip

1

2 сезон

iTunes

1 сезон

1 сезон

RePack

30

Новинка

ВАЖНО

ИГРА 18+

pack

RePack

MK11
pack

Легкие деньги

RePack

jed

RePack

fifa19

RePack

RDR2

RePack

NEED FOR SPEED™ PAYBACK

4 сезон

9 сезон

Бесстыжие 9 сезон

Все сериалы

все сериалы на PB.wtf

RePack

FAR CRY 5

Anonymous, доброе утро, мы не успеваем собрать деньги на оплату серверов за февраль, помогите нам пожалуйста в это трудное время. В качестве благодарности мы отключим Вам всю рекламу на сайте (укажите свой ник в строку Ваше имя)!

×
  
Magnet ссылка

Корпорация монстров в 3Д / Monsters, Inc 3D (Пит Доктер, Дэвид Си / Pete Docter,David Si) [2001, мультфильм, фэнтези, комедия, приключения, BDRip, 1080p] OverUnder / Вертикальная стереопара (лицензия) pb.wtf

Корпорация монстров в 3Д через торрент pb.wtf

Раздают: 1 [ 0 KB/s ]
Размер: 13.36 GB | Добавлен: 5 д. назад | Торрент скачан:3 раза
Скачать  

22-02-2021 04:12 Корпорация монстров в 3Д Скачать торрент  

Корпорация монстров / Monsters, Inc

Год выпуска: 2001
Страна: США
Жанр: мультфильм, фэнтези, комедия, приключения
Продолжительность: 01:32:08

Перевод: Профессиональный (дублированный)
Русские субтитры: нет
Режиссер на русском: Пит Доктер, Дэвид Силверман, Ли Анкрич
Режиссер на английском: Pete Docter,David Silverman,Lee Unkrich

В ролях: Джон Гудмен,Билли Кристал,Мэри Гиббс,Стив Бушеми,Джеймс Коберн,Дженнифер Тилли,Боб Питерсон,
Джон Ратценбергер,Фрэнк Оз,Дэниэл Джерсон.

Роли озвучивали: Сергей Паршин,Олег Куликович,Лидия Семёнова,Евгений Дятлов,Борис Улитин.

Описание: Склизский гад в сливном бачке, мохнатый зверь, похожий на чудовище из «Аленького цветочка», гигантские мокрицы под кроватью — все они существуют на самом деле. Все, что им нужно — пугать детей, потому что из детских криков они получают электричество.Полнометражный мультфильм рассказывает о кризисах в мире монстров, их жизни.Но однажды вся мирная жизнь монстров оказывается под угрозой: в их мир попадает ребенок. А с детьми столько хлопот, что они могут довести даже монстров.

Сэмпл: http://sendfile.su/1596527

Качество: BDrip, 1080p
Контейнер: MKV
Формат 3D: OverUnder / Вертикальная стереопара
Порядок ракурсов: левый ракурс первый
Видео кодек: x264
Аудио кодек: AC3
Видео:AVC /High@L5.0/ 23,976 fps / 1920х2160 / 18,9 Mbps
Аудио: Русский / AC3 / 48 KHz / 5.1 ch / 640 Kbps
Аудио: Английский / AC3 / 48 KHz / 5.1 ch / 640 Kbps

ВНИМАНИЕ ! На встроенных ТВ-плеерах работать не будет!!!

ТВ Samsung в названии которого есть надпись Ultra HD , и LG Ultra HD 800 серии, LG C6P, Xiaomi Mi TV 2, GRUNDIG VLE 8474 BL, Samsung UE48H6200AK воспроизводят полные стереопары встроенными плеерами
Железные плееры на которых воспроизводятся полные стереопары:Popcorn C-200, Popcorn a-400, Dune HD Smart D1 , Dune HD DUO , Dune HD Smart H1 , Dune HD Smart B1 , Dune HD Max , Dune HD TV-303D, Dune HD TV-102, Dune HD Base 3D, Philips HMP7001, Aura HD, MECOOL BB2, Zidoo x9s, Lake I Cloud, MiBox 3

Чтобы изображение было на весь экран в плеере выставляем, если рип 1920х1600 - то выставляем 2.35:1 , если 1920х2160 - то выставляем 16:9
Общее
Уникальный идентификатор : 234220386922036321145425347805958901758 (0xB03534A72D312809B7AC8DA41A700FFE)
Полное имя : G:\Iso\Monsters, Inc.Rip by SeRoGa00.mkv
Формат : Matroska
Версия формата : Version 2
Размер файла : 13,4 Гбайт
Продолжительность : 1 ч. 32 м.
Общий поток : 20,6 Мбит/сек
Дата кодирования : UTC 2021-02-19 04:47:07
Программа кодирования : mkvmerge v3.4.0 ('Rapunzel') сборка от May 15 2010 09:38:20
Библиотека кодирования : libebml v0.8.0 + libmatroska v0.9.0

Видео
Идентификатор : 1
Формат : AVC
Формат/Информация : Advanced Video Codec
Профиль формата : High@L5.0
Параметр CABAC формата : Да
Параметр ReFrames формата : 4 кадра
Идентификатор кодека : V_MPEG4/ISO/AVC
Продолжительность : 1 ч. 32 м.
Битрейт : 18,9 Мбит/сек
Ширина : 1920 пикселей
Высота : 2160 пикселей
Соотношение сторон : 0,889
Частота кадров : 23,976 кадра/сек
Цветовое пространство : YUV
Субдискретизация насыщенности : 4:2:0
Битовая глубина : 8 бит
Тип развёртки : Прогрессивная
Бит/(Пиксели*Кадры) : 0.191
Размер потока : 12,3 Гбайт (92%)
Заголовок : Rip by SeRoGa00
Библиотека кодирования : x264 core 157 r2969 d4099dd
Настройки программы : cabac=1 / ref=4 / deblock=1:-3:-3 / analyse=0x3:0x113 / me=umh / subme=10 / psy=1 / psy_rd=1.00:0.15 / mixed_ref=1 / me_range=24 / chroma_me=1 / trellis=2 / 8x8dct=1 / cqm=0 / deadzone=21,11 / fast_pskip=1 / chroma_qp_offset=-3 / threads=12 / lookahead_threads=6 / sliced_threads=0 / nr=0 / decimate=0 / interlaced=0 / bluray_compat=0 / constrained_intra=0 / bframes=10 / b_pyramid=2 / b_adapt=2 / b_bias=0 / direct=3 / weightb=1 / open_gop=0 / weightp=2 / keyint=250 / keyint_min=23 / scenecut=40 / intra_refresh=0 / rc_lookahead=60 / rc=crf / mbtree=1 / crf=16.5 / qcomp=0.60 / qpmin=10 / qpmax=69 / qpstep=4 / vbv_maxrate=40000 / vbv_bufsize=40000 / crf_max=0.0 / nal_hrd=none / filler=0 / ip_ratio=1.40 / aq=1:1.00
Язык : English
Default : Нет
Forced : Нет

Аудио #1
Идентификатор : 2
Формат : AC-3
Формат/Информация : Audio Coding 3
Расширение режима : CM (complete main)
Параметр Endianness формата : Big
Идентификатор кодека : A_AC3
Продолжительность : 1 ч. 32 м.
Вид битрейта : Постоянный
Битрейт : 640 Кбит/сек
Каналы : 6 каналов
Расположение каналов : Front: L C R, Side: L R, LFE
Частота : 48,0 КГц
Битовая глубина : 16 бит
Метод сжатия : С потерями
Размер потока : 424 Мбайт (3%)
Язык : Russian
Default : Да
Forced : Нет

Аудио #2
Идентификатор : 3
Формат : AC-3
Формат/Информация : Audio Coding 3
Расширение режима : CM (complete main)
Параметр Endianness формата : Big
Идентификатор кодека : A_AC3
Продолжительность : 1 ч. 32 м.
Вид битрейта : Постоянный
Битрейт : 640 Кбит/сек
Каналы : 6 каналов
Расположение каналов : Front: L C R, Side: L R, LFE
Частота : 48,0 КГц
Битовая глубина : 16 бит
Метод сжатия : С потерями
Размер потока : 424 Мбайт (3%)
Язык : English
Default : Нет
Forced : Нет

Меню
00:00:00.000 : en:00:00:00.000
00:01:33.091 : en:00:01:33.091
00:03:07.604 : en:00:03:07.604
00:04:51.124 : en:00:04:51.124
00:07:16.935 : en:00:07:16.935
00:09:11.509 : en:00:09:11.509
00:10:43.600 : en:00:10:43.600
00:11:53.796 : en:00:11:53.796
00:17:25.794 : en:00:17:25.794
00:20:06.078 : en:00:20:06.078
00:22:03.779 : en:00:22:03.779
00:25:48.421 : en:00:25:48.421
00:28:34.962 : en:00:28:34.962
00:31:06.489 : en:00:31:06.489
00:34:49.961 : en:00:34:49.961
00:36:55.630 : en:00:36:55.630
00:38:50.286 : en:00:38:50.286
00:40:27.882 : en:00:40:27.882
00:43:34.277 : en:00:43:34.277
00:45:29.726 : en:00:45:29.726
00:48:07.425 : en:00:48:07.425
00:50:37.159 : en:00:50:37.159
00:54:41.277 : en:00:54:41.277
00:57:29.445 : en:00:57:29.445
01:03:42.025 : en:01:03:42.025
01:06:25.021 : en:01:06:25.021
01:07:26.375 : en:01:07:26.375
01:13:52.135 : en:01:13:52.135
01:17:49.581 : en:01:17:49.581
01:21:24.921 : en:01:21:24.921
01:24:07.958 : en:01:24:07.958
01:25:10.229 : en:01:25:10.229
скриншот  

скриншот  

скриншот  

скриншот  

скриншот  

скриншот  
pb.wtf



Скачать Корпорация монстров в 3Д через торрент http://i52.fastpic.ru/big/2013/0210/6a/62c234568290ea9328f7aa7020e6aa6a.png Скачать фильм Корпорация монстров в 3Д через торрент бесплантно в хорошем качестве Описание: Склизский гад в сливном бачке, мохнатый зверь, похожий на чудовище из «Аленького цветочка», гигантские мокрицы под кроватью — все ... 5 10 1
Торрент: Зарегистрирован [2021-02-22 04:12] · скачан: 3 раз
Статус: √ проверено
Размер: 13.36 GB
Как cкачать? Как скачать Корпорация монстров в 3Д через торрент | UTorrent

28-11-2019 20:33  

Отключить всю рекламу на сайте

    Дорогой пользователь! Огромная просьба, поблагодарите релизера, оцените раздачу и оставьте свои комментарий, если Вы скачали Корпорация монстров в 3Д через торрент бесплатно! Внесите свою лепту в развитие PiratBit!
    Комментировать посты могут только пользователи прошедшие не сложную регистрацию
    Показать сообщения:    

    Корпорация монстров в 3Д через торрент
    Скачать бесплатно Корпорация монстров в 3Д
    Корпорация монстров в 3Д скачать торрент
    Корпорация монстров в 3Д смотреть онлайн
    Cкачать фильм Корпорация монстров в 3Д бесплатно
    Корпорация монстров в 3Д скачать торрент в хорошем качестве
    Корпорация монстров в 3Д смотреть онлайн бесплатно в хорошем качестве


    Вы не можете начинать темы
    Вы не можете отвечать на сообщения
    Вы не можете редактировать свои сообщения
    Вы не можете удалять свои сообщения
    Вы не можете голосовать в опросах
    Вы не можете прикреплять файлы к сообщениям
    Вы можете скачивать файлы