2 сезон

iTunes

WEBRip

1

2 сезон

iTunes

1 сезон

1 сезон

RePack

30

Ultimate

ВАЖНО

ИГРА 18+

pack

RePack

MK11
pack

Легкие деньги

RePack

jed

RePack

fifa19

RePack

RDR2

RePack

NEED FOR SPEED™ PAYBACK

4 сезон

9 сезон

Бесстыжие 9 сезон

Все сериалы

все сериалы на PB.wtf

RePack

FAR CRY 5

Anonymous, доброй ночи, мы не успеваем собрать деньги на оплату серверов за февраль, помогите нам пожалуйста в это трудное время. В качестве благодарности мы отключим Вам всю рекламу на сайте (укажите свой ник в строку Ваше имя)!

×
  
Magnet ссылка

Замок женщин / Голубая Рита / Das Frauenhaus / Blue Rita (Хесус Франко) [1977 г., Эротика, боевик, триллер, криминал, BDRip 720p, Авторский одноголосый Антон Алексеев] от ExKinoRay pb.wtf

Замок женщин через торрент pb.wtf

Раздают: 2 [ 0 KB/s ]
Размер: 3.44 GB | Добавлен: 9 д. назад | Торрент скачан:61 раз
Скачать  

22-02-2021 06:57 Замок женщин Скачать торрент  

Замок женщин / Голубая Рита / Das Frauenhaus / Blue Rita
Год выпуска: 1977
Страна: Швейцария, Франция
Жанр: Эротика, боевик, триллер, криминал
Продолжительность: 01:18:29
Перевод: Авторский одноголосый Антон Алексеев
Субтитры: Английские

Режиссер: Хесус Франко

Премьера в мире: 8 июля 1977

rating

В ролях: Мартин Флети, Сара Страсберг, Дагмар Бюргер, Памела Стэнфорд, Эстер Мосер, Эрик Фальк, Анжела Ричард, Ги Делорм, Анри Геган, Нене Као, Бетти Лор, Карин Мартин, Оливье Мато, Викки Месмин, Роман Хубер

Описание: Есть эротическое стрип-шоу. Во время него некоторые зрители, проводя вечер в компании ослепительной блондинки, неожиданно теряют сознание и приходят в себя в темнице, прикованные к решетке. Словно дразнясь, вчерашняя красотка появляется над Вами обнаженной, неожиданно опрокидывает колбу, и на тело пленника течёт кислота. А потом подвал превращается в газовую камеру и девчонка в противогазе вытаскивает потом трупы. Шайка лесбиянок-садисток похищает своих жертв. Спустя какое-то время в их руки начинают попадать и пары. Несмотря на явное благоволение к женщинам, они не останавливаются и перед убийством всех, кто осмеливается им возразить…

Качество: BDRip 720p
Формат: MKV
Видео кодек: MPEG4
Аудио кодек: AC3
Видео: 5000 Кбит/с, 1280x700, 24.000 кадра/сек
Аудио#1: Русский (AC3, 1 ch, 192 Кбит/с, 48 КГц)
Аудио#2: Французский (AC3, 2 ch, 192 Кбит/с, 48 КГц)
Аудио#3: Немецкий (AC3, 6 ch, 448 Кбит/с, 48 КГц)
Аудио#4: Английский (AC3, 6 ch, 448 Кбит/с, 48 КГц)
Релиз от:
x264 [info]: profile High, level 4.1
x264 [info]: frame I:614 Avg QP:14.79 size:108006
x264 [info]: frame P:21403 Avg QP:17.04 size: 46310
x264 [info]: frame B:91020 Avg QP:18.82 size: 20720
-----
Общее
Уникальный идентификатор : 197681528362540665460167806606503494109 (0x94B813D68D8119FD94C5C075F4EAC1DD)
Полное имя : D:\MyRips\Frauenhaus.1977.BDRip720p.ExKinoRay.mkv
Формат : Matroska
Версия формата : Version 2
Размер файла : 3,44 Гбайт
Продолжительность : 1 ч. 18 м.
Общий поток : 6282 Кбит/сек
Дата кодирования : UTC 2021-02-22 05:23:19
Программа кодирования : mkvmerge v7.8.0 ('River Man') 32bit built on Apr 3 2015 12:11:22
Библиотека кодирования : libebml v1.3.1 + libmatroska v1.4.2

Видео
Идентификатор : 1
Формат : AVC
Формат/Информация : Advanced Video Codec
Профиль формата : High@L4.1
Настройки формата : CABAC / 9 Ref Frames
Параметр CABAC формата : Да
Параметр RefFrames формата : 9 кадров
Идентификатор кодека : V_MPEG4/ISO/AVC
Продолжительность : 1 ч. 18 м.
Битрейт : 5000 Кбит/сек
Ширина : 1280 пикселей
Высота : 700 пикселей
Соотношение сторон : 1,85:1
Режим частоты кадров : Постоянный
Частота кадров : 24,000 кадра/сек
Цветовое пространство : YUV
Субдискретизация насыщенности : 4:2:0
Битовая глубина : 8 бит
Тип развёртки : Прогрессивная
Бит/(Пиксели*Кадры) : 0.233
Размер потока : 2,67 Гбайт (78%)
Библиотека кодирования : x264 core 152 r2851 ba24899
Настройки программы : cabac=1 / ref=9 / deblock=1:-3:-2 / analyse=0x3:0x113 / me=umh / subme=10 / psy=1 / psy_rd=1.00:0.10 / mixed_ref=1 / me_range=32 / chroma_me=1 / trellis=2 / 8x8dct=1 / cqm=0 / deadzone=21,11 / fast_pskip=0 / chroma_qp_offset=-3 / threads=6 / lookahead_threads=1 / sliced_threads=0 / nr=0 / decimate=0 / interlaced=0 / bluray_compat=0 / constrained_intra=0 / bframes=14 / b_pyramid=2 / b_adapt=2 / b_bias=0 / direct=3 / weightb=1 / open_gop=0 / weightp=2 / keyint=240 / keyint_min=24 / scenecut=40 / intra_refresh=0 / rc=2pass / mbtree=0 / bitrate=5000 / ratetol=1.0 / qcomp=0.60 / qpmin=0 / qpmax=69 / qpstep=4 / cplxblur=20.0 / qblur=0.5 / ip_ratio=1.40 / pb_ratio=1.30 / aq=3:1.00
Язык : English
Default : Да
Forced : Нет
Цветовой диапазон : Limited
Основные цвета : BT.709
Характеристики трансфера : BT.709
Коэффициенты матрицы : BT.709

Аудио #1
Идентификатор : 2
Формат : AC-3
Формат/Информация : Audio Coding 3
Коммерческое название : Dolby Digital
Идентификатор кодека : A_AC3
Продолжительность : 1 ч. 18 м.
Вид битрейта : Постоянный
Битрейт : 192 Кбит/сек
Каналы : 1 канал
Channel layout : C
Частота : 48,0 КГц
Частота кадров : 31,250 кадров/сек (1536 SPF)
Битовая глубина : 16 бит
Метод сжатия : С потерями
Размер потока : 108 Мбайт (3%)
Заголовок : Антон Алексеев
Язык : Russian
ServiceKind/String : Complete Main
Default : Да
Forced : Нет

Аудио #2
Идентификатор : 3
Формат : AC-3
Формат/Информация : Audio Coding 3
Коммерческое название : Dolby Digital
Идентификатор кодека : A_AC3
Продолжительность : 1 ч. 18 м.
Вид битрейта : Постоянный
Битрейт : 192 Кбит/сек
Каналы : 2 канала
Channel layout : L R
Частота : 48,0 КГц
Частота кадров : 31,250 кадров/сек (1536 SPF)
Битовая глубина : 16 бит
Метод сжатия : С потерями
Размер потока : 108 Мбайт (3%)
Язык : French
ServiceKind/String : Complete Main
Default : Нет
Forced : Нет

Аудио #3
Идентификатор : 4
Формат : AC-3
Формат/Информация : Audio Coding 3
Коммерческое название : Dolby Digital
Идентификатор кодека : A_AC3
Продолжительность : 1 ч. 18 м.
Вид битрейта : Постоянный
Битрейт : 448 Кбит/сек
Каналы : 6 каналов
Channel layout : L R C LFE Ls Rs
Частота : 48,0 КГц
Частота кадров : 31,250 кадров/сек (1536 SPF)
Битовая глубина : 16 бит
Метод сжатия : С потерями
Размер потока : 252 Мбайт (7%)
Язык : German
ServiceKind/String : Complete Main
Default : Нет
Forced : Нет

Аудио #4
Идентификатор : 5
Формат : AC-3
Формат/Информация : Audio Coding 3
Коммерческое название : Dolby Digital
Идентификатор кодека : A_AC3
Продолжительность : 1 ч. 18 м.
Вид битрейта : Постоянный
Битрейт : 448 Кбит/сек
Каналы : 6 каналов
Channel layout : L R C LFE Ls Rs
Частота : 48,0 КГц
Частота кадров : 31,250 кадров/сек (1536 SPF)
Битовая глубина : 16 бит
Метод сжатия : С потерями
Размер потока : 252 Мбайт (7%)
Язык : English
ServiceKind/String : Complete Main
Default : Нет
Forced : Нет

Текст
Идентификатор : 6
Формат : UTF-8
Идентификатор кодека : S_TEXT/UTF8
Идентификатор кодека/Информация : UTF-8 Plain Text
Язык : English
Default : Нет
Forced : Нет

Меню
00:00:00.000 : en:00:00:00.000
00:10:57.165 : en:00:10:57.165
00:16:55.665 : en:00:16:55.665
00:22:06.625 : en:00:22:06.625
00:27:54.875 : en:00:27:54.875
00:35:02.416 : en:00:35:02.416
00:41:23.875 : en:00:41:23.875
00:50:35.000 : en:00:50:35.000
00:56:39.958 : en:00:56:39.958
01:00:02.250 : en:01:00:02.250
01:04:59.833 : en:01:04:59.833
01:12:06.582 : en:01:12:06.582

pb.wtf



Скачать Замок женщин через торрент http://i79.fastpic.ru/big/2016/0420/f3/b8fceea79709dc52040f49558bc8a1f3.jpg Скачать фильм Замок женщин через торрент бесплантно в хорошем качестве Описание: Есть эротическое стрип-шоу. Во время него некоторые зрители, проводя вечер в компании ослепительной блондинки, неожиданно теряют ... 9.7 10 3
Info! Золотая раздача, скачанное не засчитывается.
Торрент: Зарегистрирован [2021-02-22 06:57] · скачан: 61 раз
Статус: √ проверено
Размер: 3.44 GB
Как cкачать? Как скачать Замок женщин через торрент | UTorrent

28-11-2019 20:33  

Отключить всю рекламу на сайте

    Дорогой пользователь! Огромная просьба, поблагодарите релизера, оцените раздачу и оставьте свои комментарий, если Вы скачали Замок женщин через торрент бесплатно! Внесите свою лепту в развитие PiratBit!
    Комментировать посты могут только пользователи прошедшие не сложную регистрацию
    Показать сообщения:    

    Замок женщин через торрент
    Скачать бесплатно Замок женщин
    Замок женщин скачать торрент
    Замок женщин смотреть онлайн
    Cкачать фильм Замок женщин бесплатно
    Замок женщин скачать торрент в хорошем качестве
    Замок женщин смотреть онлайн бесплатно в хорошем качестве


    Вы не можете начинать темы
    Вы не можете отвечать на сообщения
    Вы не можете редактировать свои сообщения
    Вы не можете удалять свои сообщения
    Вы не можете голосовать в опросах
    Вы не можете прикреплять файлы к сообщениям
    Вы можете скачивать файлы