2 сезон

iTunes

WEBRip

1

2 сезон

iTunes

1 сезон

1 сезон

RePack

30

Новинка

ВАЖНО

ИГРА 18+

pack

RePack

MK11
pack

Легкие деньги

RePack

jed

RePack

fifa19

RePack

RDR2

RePack

NEED FOR SPEED™ PAYBACK

4 сезон

9 сезон

Бесстыжие 9 сезон

Все сериалы

все сериалы на PB.wtf

RePack

FAR CRY 5

Anonymous, доброй ночи, мы не успеваем собрать деньги на оплату серверов за февраль, помогите нам пожалуйста в это трудное время. В качестве благодарности мы отключим Вам всю рекламу на сайте (укажите свой ник в строку Ваше имя)!

×
  
Magnet ссылка

Сторож (Юрий Быков) [2019, драма, триллер, WEB-DLRip-AVC] pb.wtf

Сторож через торрент pb.wtf

Раздают: 15 [ 15 KB/s ] Качают: 1 [ 0 KB/s ]
Размер: 1.48 GB | Добавлен: 9 д. назад | Торрент скачан:162 раза
Скачать  

22-02-2021 09:08 Сторож Скачать торрент  

Сторож

«Ложь — это смерть. Любовь — это жизнь»

Страна: Россия
Жанр: драма, триллер
Год выпуска: 2019
Продолжительность: 01:43:14

Перевод: Не требуется
Субтитры: русские (полные)
Оригинальная аудиодорожка: русский

Режиссер: Юрий Быков

В ролях: Юрий Быков, Владислав Абашин, Алла Юганова, Александр Кузьмин, Артур Бесчастный, Гела Месхи, Олег Зима, Алексей Симонов, Николай Козак, Дмитрий Блохин

Описание: Размеренную жизнь сторожа заброшенного санатория нарушает приезд странной пары, которая просит остановиться в одном из номеров. Всем троим есть что скрывать и от чего прятаться в снежной глуши.



Релиз:

Автор рипа: stalkerok

Сэмпл

Качество видео: WEB-DLRip-AVC | Исходник: Storozh.2019.1080p.KP.WEB-DL.DDP5.1.HEVC-EniaHD
Формат видео: MKV
Видео кодек: AVC
Аудио кодек: AC3
Видео: AVC, 1673 Кбит/сек, 1032x430 (2.40:1), 24 кадр/сек
Аудио: AC3, 384 Кбит/сек, 48 КГц, 5.1 - русский
---[Information] [21.02.2021 19:25:16] x264 [info]: frame I:997 Avg QP:16.97 size: 43311
---[Information] [21.02.2021 19:25:16] x264 [info]: frame P:26941 Avg QP:18.39 size: 17410
---[Information] [21.02.2021 19:25:16] x264 [info]: frame B:120721 Avg QP:20.79 size: 6487
---[Information] [21.02.2021 19:25:16] x264 [info]: consecutive B-frames: 1.0% 0.8% 2.4% 12.0% 26.6% 29.4% 11.0% 3.9% 5.0% 4.5% 1.3% 0.7% 0.3% 0.5% 0.5%

General
Unique ID : 222229554471353022345871718049167913912 (0xA72FDAF81D383929799DDE8A897733B8)
Complete name : C:\temp\Storozh.2019\Storozh.2019.WEB-DLRip.x264.stalkerok.New-Team.mkv
Format : Matroska
Format version : Version 4
File size : 1.48 GiB
Duration : 1 h 43 min
Overall bit rate : 2 059 kb/s
Movie name : Сторож (2019)
Encoded date : UTC 2021-02-21 19:04:01
Writing application : mkvmerge v53.0.0 ('Fool's Gold') 64-bit
Writing library : libebml v1.4.1 + libmatroska v1.6.2

Video
ID : 1
Format : AVC
Format/Info : Advanced Video Codec
Format profile : High@L4.1
Format settings : CABAC / 12 Ref Frames
Format settings, CABAC : Yes
Format settings, Reference frames : 12 frames
Codec ID : V_MPEG4/ISO/AVC
Duration : 1 h 43 min
Bit rate : 1 673 kb/s
Width : 1 032 pixels
Height : 430 pixels
Display aspect ratio : 2.40:1
Frame rate mode : Constant
Frame rate : 24.000 FPS
Color space : YUV
Chroma subsampling : 4:2:0
Bit depth : 8 bits
Scan type : Progressive
Bits/(Pixel*Frame) : 0.157
Stream size : 1.21 GiB (81%)
Title : Rip by stalkerok
Writing library : x264 core 161 r3043+53M 5ab00ad t_mod_New [(8 & 10)-bit@all X86_64]
Encoding settings : cabac=1 / ref=12 / deblock=1:-3:-2 / analyse=0x3:0x133 / me=umh / subme=10 / psy=1 / fade_compensate=0.00 / psy_rd=1.00:0.00 / mixed_ref=1 / me_range=32 / chroma_me=1 / trellis=2 / 8x8dct=1 / cqm=0 / deadzone=21,11 / fast_pskip=0 / chroma_qp_offset=-2 / threads=12 / lookahead_threads=3 / sliced_threads=0 / nr=0 / decimate=1 / interlaced=0 / bluray_compat=0 / constrained_intra=0 / fgo=0 / bframes=14 / b_pyramid=2 / b_adapt=2 / b_bias=0 / direct=3 / weightb=1 / open_gop=0 / weightp=2 / keyint=240 / keyint_min=23 / scenecut=40 / intra_refresh=0 / rc_lookahead=60 / rc=crf / mbtree=0 / crf=19.7000 / qcomp=0.65 / qpmin=0:0:0 / qpmax=69:69:69 / qpstep=4 / vbv_maxrate=50000 / vbv_bufsize=62500 / crf_max=0.0 / nal_hrd=none / filler=0 / ip_ratio=1.40 / pb_ratio=1.30 / aq=3:0.80 / aq-sensitivity=10.00 / aq-factor=1.00:1.00:1.00 / aq2=0 / aq3=0
Default : Yes
Forced : No

Audio
ID : 2
Format : AC-3
Format/Info : Audio Coding 3
Commercial name : Dolby Digital
Codec ID : A_AC3
Duration : 1 h 43 min
Bit rate mode : Constant
Bit rate : 384 kb/s
Channel(s) : 6 channels
Channel layout : L R C LFE Ls Rs
Sampling rate : 48.0 kHz
Frame rate : 31.250 FPS (1536 SPF)
Compression mode : Lossy
Stream size : 284 MiB (19%)
Language : Russian
Service kind : Complete Main
Default : Yes
Forced : No

Text
ID : 3
Format : UTF-8
Codec ID : S_TEXT/UTF8
Codec ID/Info : UTF-8 Plain Text
Duration : 1 h 34 min
Bit rate : 38 b/s
Count of elements : 715
Stream size : 26.7 KiB (0%)
Language : Russian
Default : No
Forced : No
pb.wtf



Скачать Сторож через торрент http://i6.imageban.ru/out/2017/09/18/2ff75c0c358795c5946784cc1680714d.png Скачать фильм Сторож через торрент бесплантно в хорошем качестве Описание: Размеренную жизнь сторожа заброшенного санатория нарушает приезд странной пары, которая просит остановиться в одном из номеров. ... 6.8 10 6
Info! Золотая раздача, скачанное не засчитывается.
Торрент: Зарегистрирован [2021-02-22 09:08] · скачан: 162 раз
Статус: √ проверено
Размер: 1.48 GB
Как cкачать? Как скачать Сторож через торрент | UTorrent

% Раздел Тема Автор DL S | L
Наши сериалы [ 4.69 GB ] Шифр / Сезон: 2 / Серии: 1-8 из 8 [2020 SATRip] Russian Mafia Скачать
1 | 0
Наши сериалы [ 5.35 GB ] Шифр / Сезон: 2 / Серии: 1-8 из 8 [2020 HDTVRip] bober100 Скачать
1 | 0
Наши сериалы [ 20.44 GB ] Шифр / Сезон: 2 / Серии: 1-8 из 8 [2020 HDTV 1080i] bober100 Скачать
2 | 1
Порно фильмы с сюжетом [ 1.29 GB ] Будь Осторожен в Своих Желаниях / Careful What You Wish For [2020 All Sex Feature WEB-DL] bashai5 Скачать
3 | 0
Фильмы 2019-2020 [DVDrip, WEB-DLRip, HDrip] (DUB, MVO) [ 743 MB ] Сторожка / The Lodge [2019 HDRip] MVO bober100 Скачать
1 | 0
Фильмы 2019-2020 [DVDrip, WEB-DLRip, HDrip] (DUB, MVO) [ 1.41 GB ] Сторожка / The Lodge [2019 BDRip] MVO Twi7ter Скачать
1 | 0
Фильмы (Blu-ray, BD-Remux, HDDVD) [ 18.47 GB ] Сторожка / The Lodge [2019 BD Remux 1080p] MVO bober100 Скачать
1 | 0

28-11-2019 20:33  

Отключить всю рекламу на сайте

24-02-2021 04:42 Сторож Скачать торрент  

В стиле Быкова... Но не особо 3из 5 pb.wtf



    Дорогой пользователь! Огромная просьба, поблагодарите релизера, оцените раздачу и оставьте свои комментарий, если Вы скачали Сторож через торрент бесплатно! Внесите свою лепту в развитие PiratBit!
    Комментировать посты могут только пользователи прошедшие не сложную регистрацию
    Показать сообщения:    

    Сторож через торрент
    Скачать бесплатно Сторож
    Сторож скачать торрент
    Сторож смотреть онлайн
    Cкачать фильм Сторож бесплатно
    Сторож скачать торрент в хорошем качестве
    Сторож смотреть онлайн бесплатно в хорошем качестве


    Вы не можете начинать темы
    Вы не можете отвечать на сообщения
    Вы не можете редактировать свои сообщения
    Вы не можете удалять свои сообщения
    Вы не можете голосовать в опросах
    Вы не можете прикреплять файлы к сообщениям
    Вы можете скачивать файлы